<?xml version="1.0" standalone="no"?>
<!DOCTYPE svg PUBLIC "-//W3C//DTD SVG 1.1//EN" "http://www.w3.org/Graphics/SVG/1.1/DTD/svg11.dtd" >
<svg xmlns="http://www.w3.org/2000/svg">
  <metadata>Created by iconfont</metadata>
  <defs>
  <font id="iconfont" horiz-adv-x="1024">
    <font-face
      font-family="iconfont"
      font-weight="400"
      font-stretch="normal"
      units-per-em="1024"
      ascent="896"
      descent="-128"
    />
      <missing-glyph />
      
      <glyph glyph-name="shouji" unicode="&#58887;" d="M702.699388 835.054953 321.284238 835.054953c-57.463044 0-104.022314-46.591131-104.022314-104.018052l0-693.454702c0-57.426921 46.560293-104.019075 104.022314-104.019075l381.416174 0c57.463044 0 104.022314 46.592155 104.022314 104.019075L806.722726 731.036901C806.722726 788.462798 760.163456 835.054953 702.699388 835.054953zM477.317197 800.382269l69.349233 0c9.582632 0 17.336541-7.754614 17.336541-17.33583 0-9.582239-7.753909-17.336854-17.336541-17.336854l-69.349233 0c-9.581609 0-17.336541 7.754614-17.336541 17.336854C459.980656 792.627654 467.735588 800.382269 477.317197 800.382269zM511.992325-24.077116c-24.482581 0-44.324277 19.840884-44.324277 44.322461 0 24.480554 19.84272 44.322461 44.324277 44.322461 24.481557 0 44.324277-19.84293 44.324277-44.322461C556.317626-4.237255 536.473882-24.077116 511.992325-24.077116zM737.373493 124.263397c0-9.582239-7.753909-17.33583-17.336541-17.33583L303.946674 106.927567c-9.582632 0-17.337564 7.753591-17.337564 17.33583L286.60911 713.700047c0 9.582239 7.754932 17.33583 17.337564 17.33583l416.090278 0c9.582632 0 17.336541-7.754614 17.336541-17.33583L737.373493 124.263397z"  horiz-adv-x="1024" />
      
      <glyph glyph-name="xuanzhong" unicode="&#58925;" d="M512 832C262.4 832 64 633.6 64 384s198.4-448 448-448 448 198.4 448 448S761.6 832 512 832z m236.8-326.4L454.4 211.2c-12.8-12.8-32-12.8-44.8 0L275.2 352c-12.8 12.8-12.8 32 0 44.8 12.8 12.8 32 12.8 44.8 0l115.2-115.2L704 556.8c12.8 12.8 32 12.8 44.8 0 12.8-12.8 12.8-38.4 0-51.2z"  horiz-adv-x="1024" />
      
      <glyph glyph-name="spiritling-dingwei" unicode="&#58882;" d="M496.704163-121.58918800000004a21.759769 21.759769 0 0 1 30.783672 0s309.052716 309.436712 309.884708 310.652699a428.347449 428.347449 0 1 1-650.745086-0.127998c0.95999-1.215987 310.076705-310.524701 310.076706-310.524701M512 663.1064739999999a183.998045 183.998045 0 1 0 0-368.124088 184.062044 184.062044 0 1 0 0 368.124088m0 0"  horiz-adv-x="1024" />
      
      <glyph glyph-name="shijian" unicode="&#59260;" d="M502.784 820.736c-245.76 0-443.904-198.144-443.904-443.904S259.584-66.56 502.784-66.56c245.76 0 443.904 198.144 443.904 443.904s-200.192 443.392-443.904 443.392z m289.28-578.048c-6.656-13.824-18.432-20.48-31.744-20.48-4.608 0-9.216 0-13.824 2.048L484.864 343.04c-11.264 4.608-20.48 18.432-20.48 31.744v245.76c0 18.432 15.872 34.304 34.304 34.304s34.304-15.872 34.304-34.304v-225.28l241.152-109.056c17.92-6.656 24.576-25.088 17.92-43.52z"  horiz-adv-x="1024" />
      
      <glyph glyph-name="baobiaoguanli" unicode="&#59086;" d="M858.9 856.2h-468c-51.3 0-93-41.7-93-93V728h-141c-31.5 0-57.1-25.6-57.1-57.1v-689.8c0-31.5 25.6-57.1 57.1-57.1h539.8c31.5 0 57.1 25.6 57.1 57.1v71.1h105c51.3 0 93 41.7 93 93v618c0.1 51.3-41.7 93-92.9 93zM159.8-16.1V668H506l-2-154.5c-0.1-9.4 3.6-18.5 10.2-25.2 6.5-6.5 15.5-10.2 24.7-10.2h0.5l154.5 2.1v-496.3H159.8z m492.6 555.8l-88-1.2 1.2 88 86.8-86.8z m239.5-394.5c0-18.2-14.8-33-33-33h-105v389c0 14.7-5.6 28.7-15.7 39.4L576.8 710.2C566 721.5 550.9 728 535.4 728H357.8v35.2c0 18.2 14.8 33 33 33h468c18.2 0 33-14.8 33-33v-618zM540 383.4H282c-16.6 0-30-13.4-30-30s13.4-30 30-30h258c16.6 0 30 13.4 30 30s-13.4 30-30 30zM540 205.4H282c-16.6 0-30-13.4-30-30s13.4-30 30-30h258c16.6 0 30 13.4 30 30s-13.4 30-30 30z"  horiz-adv-x="1024" />
      
      <glyph glyph-name="haoxianxing" unicode="&#59134;" d="M291-33.3l-110.7-0.7c-29-0.1-56.4 11-76.9 31.5-20.6 20.5-31.9 47.7-31.9 76.7V388.4c0 59.7 48.5 108.2 108.2 108.2H291v-529.9zM179.9 26l51 0.3V436.6h-51.3c-26.6 0-48.2-21.6-48.2-48.2v-314.2c0-12.9 5.1-25.1 14.2-34.2 9.1-9 21.2-14 34-14h0.3zM652.3 802l39.1-0.2c26.5-0.2 51.3-10.6 69.9-29.5 18.6-18.8 28.7-43.8 28.6-70.2 0-6.5-0.7-13-2-19.3l-38.2-186.1H895c57.1 0 103.5-46.5 103.5-103.6 0-7-0.7-14-2.1-20.9l-65.8-319.8c-4.8-23.2-17.5-44.3-35.8-59.3-18.3-15-41.5-23.3-65.1-23.4l-39.7-0.2-431.6-2.6V476.3l198.9 275.8c21.3 31.3 56.4 49.9 94.3 49.9h0.7zM418.4 27.2l371.2 2.3 39.8 0.2c20.5 0.1 38.3 14.7 42.5 34.8l65.8 319.8c0.6 2.9 0.9 5.8 0.9 8.8 0 24-19.5 43.6-43.5 43.6H738.6c-3.4 0-6.9 0.4-10.3 1-27.5 5.7-45.4 32.7-39.7 60.2L729 694.8c0.5 2.5 0.8 5.1 0.8 7.6 0.1 10.4-3.9 20.3-11.3 27.7-7.3 7.4-17.1 11.6-27.5 11.6l-39.1 0.2h-0.3c-18 0-34.7-8.9-44.8-23.9l-0.3-0.4-188.1-260.7v-429.7z"  horiz-adv-x="1024" />
      
      <glyph glyph-name="duizhang" unicode="&#59213;" d="M866.5 158.9l15.1 15.4c13.2 13.5 13 35.1-0.5 48.3l-27.5 26.9c-13.5 13.2-35.1 13-48.3-0.5l-15.2-15.4 76.4-74.7zM770.3 213.4L583.1 22.2c-2.6-2.6-4.2-6-4.7-9.6l-10.1-74.1c-0.6-4.5 3.3-8.3 7.7-7.6l73.9 11.7c3.6 0.6 7 2.3 9.5 4.9l187.2 191.2-76.3 74.7zM761.3 837.2H240.7c-50.8 0-92-41.2-92-92v-720.8c0-50.8 41.2-92 92-92h152.9c26.8 0 52.4 10.8 71.2 30L825 330.8c18.2 18.6 28.4 43.6 28.4 69.6V745.2c-0.1 50.8-41.3 92-92.1 92zM563.5 281.8H313.6c-16.6 0-30 13.4-30 30s13.4 30 30 30h249.9c16.6 0 30-13.4 30-30s-13.4-30-30-30zM660.1 456H313.6c-16.6 0-30 13.4-30 30s13.4 30 30 30h346.5c16.6 0 30-13.4 30-30s-13.4-30-30-30z m0 174.2H313.6c-16.6 0-30 13.4-30 30s13.4 30 30 30h346.5c16.6 0 30-13.4 30-30s-13.4-30-30-30z"  horiz-adv-x="1024" />
      
      <glyph glyph-name="tongjibaobiao" unicode="&#59214;" d="M858.9 856.2h-468c-51.3 0-93-41.7-93-93V728h-141c-31.5 0-57.1-25.6-57.1-57.1v-689.8c0-31.5 25.6-57.1 57.1-57.1h539.8c31.5 0 57.1 25.6 57.1 57.1v71.1h105c51.3 0 93 41.7 93 93v618c0.1 51.3-41.7 93-92.9 93zM512 52H238c-16.6 0-30 13.4-30 30s13.4 30 30 30h274c16.6 0 30-13.4 30-30s-13.4-30-30-30z m76 180H238c-16.6 0-30 13.4-30 30s13.4 30 30 30h350c16.6 0 30-13.4 30-30s-13.4-30-30-30z m0 180H238c-16.6 0-30 13.4-30 30s13.4 30 30 30h350c16.6 0 30-13.4 30-30s-13.4-30-30-30z m-23.6 126.5l1.2 88 86.8-86.8-88-1.2z m294.5-426.3h-105v389c0 14.7-5.6 28.7-15.7 39.4L576.8 710.2C566 721.5 550.9 728 535.4 728H357.8v35.2c0 18.2 14.8 33 33 33h468c18.2 0 33-14.8 33-33v-618h0.1c0-18.2-14.8-33-33-33z"  horiz-adv-x="1024" />
      
      <glyph glyph-name="wenda1" unicode="&#58974;" d="M858.898 570.171c-16.25 0-28.785-13-28.785-28.785 0-15.782 13.465-28.78 29.245-28.78 15.79 0 28.785-13 28.785-28.785l0-319.859c0-16.25-12.995-28.78-28.785-28.78l-29.245 0c-16.25 0-28.785-13.005-28.785-28.785l0 0 0-0.465 0-45.03-66.385 65.92c-5.57 5.57-12.995 8.36-20.89 8.36 0 0 0 0-0.46 0L568.749 135.182c-16.25 0-28.785-13.005-28.785-28.785 0-15.785 13-28.785 28.785-28.785l133.235 0 106.775-107.7c5.575-5.575 13-8.82 20.425-8.82 3.72 0 7.43 0.925 11.145 2.32 10.675 4.645 18.105 14.855 18.105 26.92l0.465 87.28 0.46 0c47.82 0 86.815 39 86.815 87.28L946.174 484.286C946.173 531.176 907.178 570.171 858.898 570.171zM771.623 280.487 771.623 657.911c0 47.815-39 87.277-87.28 87.277L162.54 745.188c-47.815 0-87.275-38.997-87.275-87.277l0-376.959c0-47.82 38.995-87.28 87.275-87.28l0.465 0-0.465-145.305c0-12.07 7.43-22.75 18.105-26.925 3.715-1.395 6.965-1.86 10.68-1.86 7.89 0 15.782 3.255 21.352 9.285l154.127 164.805 317.539 0C732.623 193.672 771.623 232.672 771.623 280.487zM354.734 251.702l-0.465 0c-2.782 0-5.57-0.93-8.355-1.855-0.93-0.465-1.855-0.465-2.785-0.465-2.323-0.93-4.642-2.785-6.5-4.64-0.93-0.465-1.855-0.93-2.32-1.86 0 0-0.465-0.465-0.93-0.465l-112.81-120.24 0.465 96.565c0 1.395 0.927 2.325 0.927 3.715 0 16.25-12.997 28.785-28.782 28.785l-30.64 0c-15.782 0-28.782 12.995-28.782 28.78L133.757 657.911c0 15.785 13 28.785 28.782 28.785l522.269 0c16.25 0 28.785-13 28.785-28.785l0-376.959c0-16.25-13-28.785-28.785-28.785L354.734 252.167 354.734 251.702zM533.469 500.536l-71.495 0 0 71.492c0 16.712-13.462 30.64-30.64 30.64-17.175 0-30.64-13.462-30.64-30.64l0-71.492-71.492 0c-16.712 0-30.64-13.462-30.64-30.64 0-17.18 13.465-30.642 30.64-30.642l71.492 0 0-71.027c0-16.71 13.465-30.64 30.64-30.64 17.177 0 30.64 13.465 30.64 30.64l0 71.492 71.495 0c16.71 0 30.64 13.462 30.64 30.64S550.179 500.536 533.469 500.536z"  horiz-adv-x="1024" />
      
      <glyph glyph-name="zixun" unicode="&#59003;" d="M917.942857 329.142857v25.6c3.657143 124.342857-36.571429 226.742857-109.714286 303.542857-36.571429 36.571429-76.8 62.171429-128 80.457143-7.314286 65.828571-80.457143 120.685714-171.885714 120.685714S343.771429 808.228571 336.457143 738.742857c-47.542857-18.285714-91.428571-43.885714-128-80.457143-73.142857-73.142857-113.371429-179.2-109.714286-299.885714v-32.914286c-18.285714-18.285714-32.914286-47.542857-21.942857-87.771428 7.314286-29.257143 29.257143-51.2 58.514286-62.171429 14.628571-7.314286 29.257143-14.628571 47.542857-14.628571 36.571429-149.942857 164.571429-252.342857 329.142857-252.342857 168.228571 0 292.571429 102.4 329.142857 252.342857h3.657143c21.942857 0 43.885714 7.314286 58.514286 18.285714 21.942857 10.971429 36.571429 29.257143 43.885714 54.857143 10.971429 47.542857-7.314286 76.8-29.257143 95.085714M362.057143 508.342857c3.657143-3.657143 65.828571-106.057143 186.514286-149.942857 32.914286-10.971429 65.828571-18.285714 98.742857-25.6 65.828571-14.628571 128-25.6 168.228571-80.457143v-3.657143c0-18.285714 0-40.228571-3.657143-58.514285-54.857143-84.114286-142.628571-138.971429-256-153.6-7.314286 10.971429-25.6 18.285714-43.885714 18.285714-29.257143 0-51.2-14.628571-51.2-32.914286s21.942857-32.914286 51.2-32.914286c25.6 0 43.885714 10.971429 51.2 25.6 36.571429 3.657143 69.485714 10.971429 102.4 25.6 47.542857 18.285714 87.771429 43.885714 120.685714 76.8 3.657143 3.657143 10.971429 10.971429 14.628572 18.285715-40.228571-120.685714-149.942857-197.485714-288.914286-197.485715-179.2 0-307.2 128-307.2 307.2v18.285715c0 7.314286 0 29.257143 3.657143 47.542857 98.742857 32.914286 138.971429 131.657143 142.628571 135.314286l10.971429 62.171428m65.828571-274.285714c0-32.914286-25.6-58.514286-58.514285-58.514286s-58.514286 25.6-58.514286 58.514286c0 32.914286 25.6 58.514286 58.514286 58.514286 32.914286 0 58.514286-25.6 58.514285-58.514286m274.285715 0c0-29.257143-25.6-54.857143-58.514286-54.857143-32.914286 0-58.514286 25.6-58.514286 54.857143s25.6 54.857143 58.514286 54.857143c32.914286 0 58.514286-25.6 58.514286-54.857143"  horiz-adv-x="1024" />
      
      <glyph glyph-name="daiweixiu" unicode="&#59140;" d="M70.990801 781.02452l37.813182 37.813183a7.60652 7.60652 0 0 0 9.361871 1.097094l145.913539-90.473707a7.899079 7.899079 0 0 0 3.071864-3.656981l38.032601-93.98441a6.582566 6.582566 0 0 1 1.682211-2.486747l119.802695-119.802694a7.533381 7.533381 0 0 0 0-10.751524l-35.618994-35.692134a7.67966 7.67966 0 0 0-10.751524 0L261.007529 582.377318a6.582566 6.582566 0 0 1-2.267329 1.535932l-94.203828 41.909001a6.801984 6.801984 0 0 0-3.364422 2.852445L69.966846 771.51637a7.7528 7.7528 0 0 0 1.023955 9.50815zM952.835176-14.295687l-47.687031-47.613891a68.89752 68.89752 0 0 0-97.129413 0L547.202854 198.9063a7.460241 7.460241 0 0 0 0 10.678384l16.163856 16.236995a7.533381 7.533381 0 0 0 10.751524 0l233.022823-232.949683a19.016301 19.016301 0 1 1 26.988519 26.988519L601.106753 252.810198a7.533381 7.533381 0 0 0 0 10.751524l28.305032 28.305032a7.67966 7.67966 0 0 0 10.751524 0l232.949684-233.022823a19.016301 19.016301 0 1 1 26.988519 26.988519L667.151828 318.855274a7.460241 7.460241 0 0 0 0 10.678384l13.969667 14.042806a7.533381 7.533381 0 0 0 10.751524 0l260.815878-260.815878a68.751241 68.751241 0 0 0 0.146279-97.056273z m65.459958 632.438278l-142.037138-142.037139a14.920482 14.920482 0 0 0-14.262225-3.876399l-97.421972 26.110843a7.67966 7.67966 0 0 1-7.387101-1.974769L400.63106 139.882628c-1.90163-1.90163-2.633026-4.680936-1.90163-7.387101l25.891424-96.617436a16.310135 16.310135 0 0 0-4.242098-15.725018l-143.061093-143.061093a17.553508 17.553508 0 0 0-16.748972-4.534656l-82.062652 22.015025a18.650603 18.650603 0 0 0-8.337916 31.230617l105.174771 105.24791a7.60652 7.60652 0 0 1 1.974769 7.387102l-13.750248 51.197732a63.997166 63.997166 0 0 1-45.346563 45.346564l-51.197733 13.750248a7.67966 7.67966 0 0 1-7.387101-1.97477L54.388107 41.509842a18.650603 18.650603 0 0 0-31.230616 8.411056l-22.015025 82.062651a17.553508 17.553508 0 0 0 4.534656 16.748973l143.061093 143.061093a16.602693 16.602693 0 0 0 15.798157 4.242098l96.544296-25.891425a7.67966 7.67966 0 0 1 7.387102 1.97477l356.555638 356.482498c1.82849 1.90163 2.559887 4.754075 1.82849 7.387102l-26.037704 97.348831a14.627924 14.627924 0 0 0 3.80326 14.335365L746.654593 889.636853a21.283629 21.283629 0 0 0 20.552233 5.558611l79.941602-21.429908a18.650603 18.650603 0 0 0 8.337917-31.230617L750.238434 737.360168c-1.90163-1.90163-2.633026-4.680936-1.90163-7.387101l13.750248-51.197733a63.924026 63.924026 0 0 1 45.273424-45.273423l51.197733-13.750249a8.045358 8.045358 0 0 1 7.460241 1.97477l105.17477 105.247911a18.650603 18.650603 0 0 0 31.230617-8.337917l21.429908-79.941602a21.356768 21.356768 0 0 0-5.558611-20.552233z m0 0"  horiz-adv-x="1024" />
      
      <glyph glyph-name="compared" unicode="&#58936;" d="M475.428571 896c-21.942857 0-36.571429-14.628571-36.571428-36.571429v-950.857142c0-21.942857 14.628571-36.571429 36.571428-36.571429s36.571429 14.628571 36.571429 36.571429V859.428571c0 21.942857-14.628571 36.571429-36.571429 36.571429z m-365.714285-146.285714h219.428571c21.942857 0 36.571429 14.628571 36.571429 36.571428S351.085714 822.857143 329.142857 822.857143h-219.428571C51.2 822.857143 0 771.657143 0 713.142857v-658.285714c0-58.514286 51.2-109.714286 109.714286-109.714286h219.428571c21.942857 0 36.571429 14.628571 36.571429 36.571429s-14.628571 36.571429-36.571429 36.571428h-219.428571c-21.942857 0-36.571429 14.628571-36.571429 36.571429v658.285714c0 21.942857 14.628571 36.571429 36.571429 36.571429z m585.142857-731.428572h-73.142857c-21.942857 0-36.571429-14.628571-36.571429-36.571428s14.628571-36.571429 36.571429-36.571429h73.142857c21.942857 0 36.571429 14.628571 36.571428 36.571429s-14.628571 36.571429-36.571428 36.571428zM585.142857 786.285714c0-21.942857 14.628571-36.571429 36.571429-36.571428H731.428571V822.857143H621.714286c-21.942857 0-36.571429-14.628571-36.571429-36.571429zM877.714286 384h73.142857V603.4285709999999h-73.142857v-219.428571z m0-329.142857c0-21.942857-14.628571-36.571429-36.571429-36.571429H804.571429v-73.142857h36.571428c58.514286 0 109.714286 51.2 109.714286 109.714286V91.42857100000003h-73.142857v-36.571428zM841.142857 822.857143H804.571429v-73.142857h36.571428c21.942857 0 36.571429-14.628571 36.571429-36.571429V676.571429h73.142857v36.571428c0 58.514286-51.2 109.714286-109.714286 109.714286z m36.571429-658.285714h73.142857V310.85714299999995h-73.142857v-146.285714zM658.285714 18.285713999999984h73.142857v-73.142857H658.285714z"  horiz-adv-x="1024" />
      
      <glyph glyph-name="hetong" unicode="&#59018;" d="M853.333333 106.666667c-12.586667 0-23.68 8.533333-26.88 20.48l-38.186666 139.946666c31.573333 17.706667 50.986667 54.613333 41.173333 95.146667a85.376 85.376 0 0 1-50.773333 58.24s-0.213333 0-0.213334 0.213333c-3.626667 1.493333-7.466667 2.773333-11.52 3.626667-3.413333 0.853333-6.826667 1.493333-10.24 1.706667-1.28 0.213333-2.56 0.213333-4.053333 0.213333-1.92 0.213333-4.053333 0.426667-5.973333 0.426667-5.333333 0-10.666667-0.64-15.573334-1.493334-0.853333-0.213333-1.493333-0.213333-2.346666-0.426666-4.906667-1.066667-9.386667-2.56-13.866667-4.266667-0.853333-0.426667-1.706667-0.64-2.56-1.066667-4.48-1.92-8.746667-4.266667-12.586667-6.826666-0.64-0.426667-1.066667-0.853333-1.706666-1.28-4.053333-2.773333-7.893333-5.973333-11.306667-9.386667 0 0-0.213333 0-0.213333-0.213333-3.413333-3.413333-6.613333-7.466667-9.386667-11.52-0.426667-0.64-0.853333-1.28-1.28-1.706667-2.56-4.053333-4.906667-8.106667-6.826667-12.586667-0.426667-0.853333-0.64-1.706667-1.066666-2.56-1.92-4.48-3.2-9.173333-4.266667-13.866666-0.213333-0.64-0.213333-1.493333-0.426667-2.133334-1.28-5.333333-1.92-10.666667-1.92-16 0-32 17.706667-59.52 43.733334-74.026666l-38.186667-139.946667c-3.2-12.16-14.293333-20.693333-26.88-20.693333-23.466667 0-42.666667-19.2-42.666667-42.666667v-42.666667c0-23.466667 19.2-42.666667 42.666667-42.666666h213.333333c23.466667 0 42.666667 19.2 42.666667 42.666666v42.666667c0 23.466667-19.2 42.666667-42.666667 42.666667zM614.826667 271.573333c-11.306667 21.12-17.493333 45.013333-17.493334 69.76 0 82.346667 66.986667 149.333333 149.333334 149.333334 5.333333 0 14.08-1.28 22.4-2.56 10.666667-1.706667 20.266667 6.4 20.266666 17.28V704c0 47.146667-38.186667 85.333333-85.333333 85.333333H170.666667C123.52 789.333333 85.333333 751.146667 85.333333 704v-640c0-47.146667 38.186667-85.333333 85.333334-85.333333h357.546666c6.613333 0 11.306667 6.186667 9.6 12.586666-2.986667 9.386667-4.48 19.626667-4.48 30.08v42.666667c0 37.546667 19.413333 70.613333 48.853334 89.6 19.2 12.373333 33.92 30.72 40.106666 52.906667 5.973333 21.76 3.2 45.013333-7.466666 65.066666zM437.333333 298.666667h-192c-17.706667 0-32 14.293333-32 32s14.293333 32 32 32h192c17.706667 0 32-14.293333 32-32s-14.293333-32-32-32z m0 128h-192c-17.706667 0-32 14.293333-32 32s14.293333 32 32 32h192c17.706667 0 32-14.293333 32-32s-14.293333-32-32-32z m-192 128c-17.706667 0-32 14.293333-32 32s14.293333 32 32 32h362.666667c17.706667 0 32-14.293333 32-32s-14.293333-32-32-32h-362.666667z"  horiz-adv-x="1024" />
      
      <glyph glyph-name="daiqiandinghetong" unicode="&#59073;" d="M900.266667 413.866667V776.533333c0 64-51.2 110.933333-115.2 115.2H128C64 891.733333 17.066667 840.533333 12.8 776.533333v-789.333333c0-64 51.2-110.933333 115.2-115.2h375.466667v136.533333c0 4.266667 29.866667 29.866667 68.266666 68.266667 64 64 132.266667 136.533333 209.066667 213.333333 12.8 17.066667 119.466667 119.466667 119.466667 123.733334z m-405.333334-230.4c0-21.333333-17.066667-38.4-38.4-38.4H196.266667c-21.333333 0-38.4 17.066667-38.4 38.4v8.533333c0 21.333333 17.066667 38.4 38.4 38.4h260.266666c21.333333 0 38.4-17.066667 38.4-38.4v-8.533333z m119.466667 226.133333c0-21.333333-17.066667-38.4-38.4-38.4h-384c-21.333333 0-38.4 17.066667-38.4 38.4v8.533333c0 21.333333 17.066667 38.4 38.4 38.4h379.733333c21.333333 0 38.4-17.066667 38.4-38.4v-8.533333z m34.133333 183.466667H187.733333c-25.6 0-42.666667 21.333333-42.666666 42.666666 0 25.6 21.333333 42.666667 42.666666 42.666667h460.8c25.6 0 42.666667-21.333333 42.666667-42.666667 4.266667-25.6-17.066667-42.666667-42.666667-42.666666zM964.266667 153.6l51.2 51.2s12.8 38.4-25.6 76.8c-38.4 38.4-76.8 25.6-76.8 25.6L861.866667 256l102.4-102.4zM1015.466667-106.666667c-4.266667 4.266667-8.533333 8.533333-12.8 8.533334h-290.133334L938.666667 128l-102.4 102.4-251.733334-251.733333V-128h418.133334c4.266667 0 12.8 0 12.8 4.266667s4.266667 12.8 0 17.066666z"  horiz-adv-x="1024" />
      
      <glyph glyph-name="a-gongchang3" unicode="&#60211;" d="M964.266667 0.853333h-68.266667V323.072a42.666667 42.666667 0 0 1-42.666667 42.666667h-62.634666l51.2 110.762666a47.274667 47.274667 0 0 1 5.12 0 85.333333 85.333333 0 1 1-85.333334 84.48 83.626667 83.626667 0 0 1 31.744-65.365333L733.866667 365.738667h-121.344V632.149333a42.666667 42.666667 0 0 1-42.666667 42.666667h-45.738667V775.68a42.837333 42.837333 0 0 1-42.666666 42.666667h-109.568a42.837333 42.837333 0 0 1-42.666667-42.666667V674.133333H157.354667a42.666667 42.666667 0 0 1-42.666667-42.666666v-631.466667H59.733333a25.6 25.6 0 0 1 0-51.2h904.533334a25.6 25.6 0 0 1 0 51.2zM847.018667 593.92a34.133333 34.133333 0 1 0-34.133334-34.133333 34.133333 34.133333 0 0 0 34.133334 34.133333zM380.416 767.146667h92.501333V674.133333h-92.501333zM207.36 310.101333V533.333333a42.666667 42.666667 0 0 0 42.666667 42.666667h115.712a42.666667 42.666667 0 0 0 42.666666-42.666667v-223.232a42.666667 42.666667 0 0 0-42.666666-42.666666h-115.712a42.666667 42.666667 0 0 0-42.666667 42.666666z m340.309333-201.557333H380.586667a25.6 25.6 0 1 0 0 51.2h167.082666a25.6 25.6 0 0 0 0-51.2z"  horiz-adv-x="1024" />
      
      <glyph glyph-name="gongchang" unicode="&#58940;" d="M530.285714 173.714286h-54.857143v-201.142857h54.857143v201.142857zM402.285714 173.714286h-54.857143v-201.142857h54.857143v201.142857zM896 9.142857v786.285714c0 20.114286-16.457143 36.571429-36.571429 36.571429h-146.285714c-20.114286 0-36.571429-16.457143-36.571428-36.571429v-274.285714h-54.857143v54.857143c0 20.114286-16.457143 36.571429-36.571429 36.571429h-146.285714c-20.114286 0-36.571429-16.457143-36.571429-36.571429v-54.857143H164.571429c-20.114286 0-36.571429-16.457143-36.571429-36.571428v-475.428572H73.142857v-73.142857h201.142857v274.285714c0 20.114286 16.457143 36.571429 36.571429 36.571429h256c20.114286 0 36.571429-16.457143 36.571428-36.571429v-274.285714h347.428572v73.142857h-54.857143z m-292.571429 292.571429H274.285714v73.142857h329.142857v-73.142857z"  horiz-adv-x="1024" />
      
      <glyph glyph-name="gouwuche" unicode="&#59247;" d="M941 554.9c-5.7 7.3-14.4 11.5-23.6 11.5H217.9l-54.8 203c-0.1 0.2-0.1 0.4-0.2 0.6-0.1 0.2-0.1 0.4-0.2 0.6-0.1 0.3-0.2 0.7-0.3 1 0 0.1-0.1 0.2-0.1 0.3-4.6 12.5-16.8 20.3-29.8 19.6H46.6c-16.6 0-30-13.4-30-30s13.4-30 30-30h64.6L251 213.1l32.6-121.2c3.5-13.1 15.4-22.2 29-22.2h497.2c13.8 0 25.8 9.4 29.1 22.8l107.5 436.8c2.3 8.9 0.3 18.3-5.4 25.6zM335.6 129.6l-18.2 67.6H803l-16.6-67.6H335.6z m482.2 127.6H301.3l-67.1 249.2h644.9l-61.3-249.2zM652.423376-11.056853a46.6 46.6 0 1 1 91.997716 14.921801 46.6 46.6 0 1 1-91.997716-14.921801ZM414.3-3.6m-46.6 0a46.6 46.6 0 1 1 93.2 0 46.6 46.6 0 1 1-93.2 0Z"  horiz-adv-x="1024" />
      
      <glyph glyph-name="zuzhijiagou" unicode="&#58966;" d="M858.251636 234.356364v138.798545a34.909091 34.909091 0 0 1-34.909091 34.909091h-273.733818V531.921455a159.650909 159.650909 0 0 1 124.555637 155.368727 159.650909 159.650909 0 0 1-159.464728 159.464727 159.650909 159.650909 0 0 1-159.511272-159.464727 159.557818 159.557818 0 0 1 124.602181-155.368727v-123.857455H206.056727a34.909091 34.909091 0 0 1-34.909091-34.909091v-137.169454A159.511273 159.511273 0 0 1 46.545455 80.663273c0-87.924364 71.540364-159.464727 159.464727-159.464728s159.464727 71.540364 159.464727 159.464728a159.557818 159.557818 0 0 1-124.555636 155.322182v102.260363h547.514182v-101.096727a159.511273 159.511273 0 0 1-129.908364-156.439273c0-87.924364 71.540364-159.464727 159.464727-159.464727S977.454545-7.214545 977.454545 80.663273c0 73.914182-50.827636 135.68-119.202909 153.693091zM425.053091 687.290182c0 49.431273 40.215273 89.646545 89.693091 89.646545 49.431273 0 89.646545-40.215273 89.646545-89.646545a89.739636 89.739636 0 0 0-89.646545-89.693091 89.832727 89.832727 0 0 0-89.693091 89.693091zM295.703273 80.663273c0-49.431273-40.215273-89.646545-89.646546-89.646546S116.363636 31.278545 116.363636 80.663273s40.215273 89.646545 89.646546 89.646545 89.693091-40.215273 89.693091-89.646545z m522.286545-89.6c-49.431273 0-89.646545 40.215273-89.646545 89.646545s40.215273 89.646545 89.646545 89.646546 89.646545-40.215273 89.646546-89.646546-40.215273-89.646545-89.646546-89.646545z"  horiz-adv-x="1024" />
      
      <glyph glyph-name="xin-copy" unicode="&#61008;" d="M769.28 768C672.64 768 588.16 712.96 544 632.32 500.48 712.96 415.36 768 318.08 768c-140.8 0-254.72-114.56-254.72-256 0-67.2 25.6-128 67.84-174.08l391.04-392.96C528.64-60.8 536.32-64 544-64c7.68 0 15.36 3.2 21.76 8.96l391.04 392.96C998.4 383.36 1024 444.8 1024 512 1024 653.44 910.08 768 769.28 768zM908.16 379.52L544 9.6 179.84 379.52C147.2 414.08 127.36 460.8 127.36 512c0 106.24 85.76 192 190.72 192C403.2 704 476.8 647.68 502.4 570.24 508.8 553.6 525.44 541.44 544 541.44c19.2 0 35.2 11.52 42.24 28.16l0 0C611.2 647.68 684.16 704 769.28 704c105.6 0 190.72-85.76 190.72-192C960.64 460.8 940.8 414.08 908.16 379.52z"  horiz-adv-x="1024" />
      
      <glyph glyph-name="facebook" unicode="&#59248;" d="M767.428571 889.142857l0-150.857143-89.714286 0q-49.142857 0-66.285714-20.571429t-17.142857-61.714286l0-108 167.428571 0-22.285714-169.142857-145.142857 0 0-433.714286-174.857143 0 0 433.714286-145.714286 0 0 169.142857 145.714286 0 0 124.571429q0 106.285714 59.428571 164.857143t158.285714 58.571429q84 0 130.285714-6.857143z"  horiz-adv-x="1024" />
      
      <glyph glyph-name="whatsapp-fill" unicode="&#59054;" d="M85.504-42.666667l57.685333 211.968A424.704 424.704 0 0 0 85.333333 384C85.333333 619.648 276.352 810.666667 512 810.666667s426.666667-191.018667 426.666667-426.666667-191.018667-426.666667-426.666667-426.666667a424.704 424.704 0 0 0-214.613333 57.813334L85.504-42.666667zM358.016 584.192a41.002667 41.002667 0 0 1-15.829333-4.266667 55.168 55.168 0 0 1-12.544-9.728c-5.12-4.821333-8.021333-9.002667-11.136-13.056A116.437333 116.437333 0 0 1 294.4 485.546667c0.085333-20.906667 5.546667-41.258667 14.08-60.288 17.450667-38.485333 46.165333-79.232 84.096-116.992 9.130667-9.088 18.048-18.218667 27.648-26.709334a403.114667 403.114667 0 0 1 163.84-87.296l24.277333-3.712c7.893333-0.426667 15.786667 0.170667 23.722667 0.554667a84.906667 84.906667 0 0 1 35.541333 9.856 206.08 206.08 0 0 1 16.341334 9.386667s1.834667 1.194667 5.333333 3.84c5.76 4.266667 9.301333 7.296 14.08 12.288 3.541333 3.669333 6.613333 7.978667 8.96 12.885333 3.328 6.954667 6.656 20.224 8.021333 31.274667 1.024 8.448 0.725333 13.056 0.597334 15.914666-0.170667 4.565333-3.968 9.301333-8.106667 11.306667l-24.832 11.136s-37.12 16.170667-59.776 26.496a21.248 21.248 0 0 1-7.552 1.749333 20.565333 20.565333 0 0 1-16.128-5.418666v0.085333c-0.213333 0-3.072-2.432-33.92-39.808a14.933333 14.933333 0 0 0-15.701333-5.546667 60.416 60.416 0 0 0-8.149334 2.816c-5.290667 2.218667-7.125333 3.072-10.752 4.650667l-0.213333 0.085333a256.426667 256.426667 0 0 0-66.986667 42.666667c-5.376 4.693333-10.368 9.813333-15.488 14.762667a268.629333 268.629333 0 0 0-43.52 54.101333l-2.517333 4.053333a39.381333 39.381333 0 0 0-4.352 8.746667c-1.621333 6.272 2.602667 11.306667 2.602667 11.306667s10.368 11.349333 15.189333 17.493333a186.88 186.88 0 0 1 11.221333 15.914667c5.034667 8.106667 6.613333 16.426667 3.968 22.869333-11.946667 29.184-24.32 58.24-37.034666 87.082667-2.517333 5.717333-9.984 9.813333-16.768 10.624-2.304 0.256-4.608 0.512-6.912 0.682666a144.426667 144.426667 0 0 1-17.194667-0.170666z"  horiz-adv-x="1024" />
      
      <glyph glyph-name="lingying" unicode="&#59015;" d="M768.128-116.352h234.496V549.12H768.128v-665.472z m780.416 686.464c-97.024 0-150.656-32.256-212.224-110.592v89.6H1102.208v-665.472H1336.32V245.248c0 76.288 36.736 150.912 124.416 150.912 87.808 0 109.312-74.624 109.312-149.12v-363.52H1803.52V261.888c0.128 262.784-157.824 308.224-254.976 308.224zM885.76 882.56c-72.192 0-130.816-52.608-130.816-117.504 0-64.896 58.496-117.376 130.816-117.376 72.192 0 130.688 52.48 130.688 117.376 0.128 64.896-58.496 117.504-130.688 117.504z m0 0"  horiz-adv-x="2560" />
      
      <glyph glyph-name="iconfontanquan" unicode="&#58932;" d="M870.26344 705.591179c-10.737563 9.749048-24.877622 15.083548-39.499659 15.083548-1.333369 0-2.666739 0-3.999085-0.092098-0.806366-0.091074-10.117438-0.645707-24.668867-0.645707-24.117305 0-71.201716 1.655711-115.803585 12.230568-57.590707 13.703107-124.056558 77.159411-143.392971 89.666272-9.748025 6.343481-20.967565 9.470708-32.209618 9.470708-11.196004 0-22.415545-3.127227-32.141057-9.379634-2.344397-1.563613-71.938498-73.569649-140.011964-89.757346-44.578332-10.574857-92.560185-12.230568-116.654977-12.230568-14.553475 0-23.839988 0.554633-24.758918 0.645707-1.264808 0.092098-2.529615 0.092098-3.816936 0.092098-14.645573 0-28.830658-5.333477-39.613246-15.083548-11.701518-10.574857-18.368365-25.380066-18.368365-40.922056l0-140.058013c0-517.749452 350.285225-584.42201 365.135459-587.085679 3.40352-0.555656 6.828529-0.829902 10.254562-0.829902 3.402497 0 6.873555 0.274246 10.230002 0.829902 14.87377 2.664692 367.732613 69.337251 367.732613 587.085679L888.67683 664.669123C888.67683 680.211113 881.98747 695.015299 870.26344 705.591179zM740.77926 505.299256l-242.8482-234.965664c-1.517565-2.480497-3.379984-4.967133-5.633306-7.081286-7.127335-6.897091-16.553018-10.20749-25.888649-10.023294-9.332562-0.184195-18.737779 3.126204-25.863067 10.023294-2.252299 2.114153-4.137231 4.600789-5.654796 7.081286l-129.780938 125.621194c-13.818741 13.33574-13.818741 34.944918 0 48.372756 13.816694 13.331646 36.231215 13.331646 50.049956 0l111.249868-107.689782 224.342712 217.030159c13.818741 13.33574 36.209726 13.33574 50.027443 0C754.596978 540.337296 754.596978 518.631926 740.77926 505.299256z"  horiz-adv-x="1024" />
      
      <glyph glyph-name="youtube" unicode="&#59589;" d="M628 185.142857v-120.571428q0-38.285714-22.285714-38.285715-13.142857 0-25.714286 12.571429v172q12.571429 12.571429 25.714286 12.571428 22.285714 0 22.285714-38.285714z m193.142857-0.571428v-26.285715h-51.428571v26.285715q0 38.857143 25.714285 38.857142t25.714286-38.857142z m-552 124.571428h61.142857v53.714286H152v-53.714286h60v-325.142857h57.142857v325.142857z m164.571429-325.142857h50.857143v282.285714h-50.857143v-216q-17.142857-24-32.571429-24-10.285714 0-12 12-0.571429 1.714286-0.571428 20v208h-50.857143v-223.428571q0-28 4.571428-41.714286 6.857143-21.142857 33.142857-21.142857 27.428571 0 58.285715 34.857143v-30.857143z m245.142857 84.571429v112.571428q0 41.714286-5.142857 56.571429-9.714286 32-40.571429 32-28.571429 0-53.142857-30.857143V362.857143h-50.857143v-378.857143h50.857143v27.428571q25.714286-31.428571 53.142857-31.428571 30.857143 0 40.571429 31.428571 5.142857 15.428571 5.142857 57.142858z m193.142857 5.714285v7.428572h-52q0-29.142857-1.142857-34.857143-4-20.571429-22.857143-20.571429-26.285714 0-26.285714 39.428572v49.714285h102.285714v58.857143q0 45.142857-15.428571 66.285715-22.285714 29.142857-60.571429 29.142857-38.857143 0-61.142857-29.142857-16-21.142857-16-66.285715v-98.857143q0-45.142857 16.571428-66.285714 22.285714-29.142857 61.714286-29.142857 41.142857 0 61.714286 30.285714 10.285714 15.428571 12 30.857143 1.142857 5.142857 1.142857 33.142857zM524.571429 596V716q0 39.428571-24.571429 39.428571t-24.571429-39.428571v-120q0-40 24.571429-40t24.571429 40z m410.857142-429.142857q0-133.714286-14.857142-200-8-33.714286-33.142858-56.571429t-58.285714-26.285714q-105.142857-12-317.142857-12t-317.142857 12q-33.142857 3.428571-58.571429 26.285714t-32.857143 56.571429q-14.857143 64-14.857142 200 0 133.714286 14.857142 200 8 33.714286 33.142858 56.571428t58.857142 26.857143q104.571429 11.428571 316.571429 11.428572t317.142857-11.428572q33.142857-4 58.571429-26.857143t32.857143-56.571428q14.857143-64 14.857142-200zM365.142857 896h58.285714L354.285714 668v-154.857143H297.142857V668q-8 42.285714-34.857143 121.142857Q241.142857 848 225.142857 896h60.571429l40.571428-150.285714z m211.428572-190.285714v-100q0-46.285714-16-67.428572-21.142857-29.142857-60.571429-29.142857-38.285714 0-60 29.142857-16 21.714286-16 67.428572V705.714286q0 45.714286 16 66.857143 21.714286 29.142857 60 29.142857 39.428571 0 60.571429-29.142857 16-21.142857 16-66.857143z m191.428571 92.571428v-285.142857h-52v31.428572q-30.285714-35.428571-58.857143-35.428572-26.285714 0-33.714286 21.142857-4.571429 13.714286-4.571428 42.857143V798.285714h52v-209.714285q0-18.857143 0.571428-20 1.714286-12.571429 12-12.571429 15.428571 0 32.571429 24.571429V798.285714h52z"  horiz-adv-x="1024" />
      
      <glyph glyph-name="douyin" unicode="&#58881;" d="M512.32 895.68C229.76 895.68 0.832 666.56 0.832 383.872 0.832 101.12 229.76-128 512.32-128c282.432 0 511.424 229.12 511.424 511.872 0 282.688-228.928 511.808-511.424 511.808z m241.6-462.528a225.408 225.408 0 0 0-131.2 41.408c0-59.008 0-117.888 0.512-176.896 0-7.872 0.384-15.744-0.256-23.552a190.272 190.272 0 0 0-74.88-137.344c-26.24-19.2-57.856-30.016-90.56-30.848a198.912 198.912 0 0 0-48.96 3.968 171.264 171.264 0 0 0-64.64 28.608 175.808 175.808 0 0 0-73.92 148.48 176.256 176.256 0 0 0 83.648 144.576 173.888 173.888 0 0 0 115.584 24.32c0.064-7.488-0.192-14.976 0.128-22.4 0.576-9.344 0.064-18.688 0.256-28.032v-47.68a67.328 67.328 0 0 1-37.632 1.152c-14.72-3.456-28.864-9.728-40.512-19.52-7.04-5.888-12.992-13.312-17.216-21.568a82.112 82.112 0 0 1-8.192-45.76c1.792-15.232 8.128-29.568 18.24-41.216 6.784-8.064 15.232-14.464 24.064-19.84 24.32-13.76 56-12.288 79.488 2.752 22.72 14.08 37.44 40.128 37.504 66.944V522.88c0.384 46.272 0.064 92.544 0.256 138.752h95.488c-0.256-8.128 0.768-16.256 2.112-24.256h0.512c2.56-13.44 7.552-26.304 13.696-38.528 9.728-18.816 24-35.648 42.24-46.72 1.088-0.704 1.92-1.728 2.816-2.624 13.376-8.32 28.16-14.592 43.52-17.92 9.024-1.984 18.304-2.688 27.52-2.944 0-7.04 0-14.08 0.128-21.12 0.384-24.768 0.128-49.536 0.256-74.368z"  horiz-adv-x="1024" />
      
      <glyph glyph-name="zhuanshi" unicode="&#59005;" d="M658.09 878.25l116.737-188.757H410.624l120.49 188.758h126.977m500.394-188.758H880.64L702.805 878.251h194.902l237.568-107.862c6.144-4.096 41.301-32.085 23.21-80.896m-8.875-61.098c-8.191-24.576-21.845-51.542-45.397-79.531l0.342-0.341L667.648-30.38l214.016 658.774h267.947M488.79 878.25L310.954 689.494H33.109c-20.138 53.248 23.894 81.92 23.894 81.92l-0.683-1.024L293.888 878.251h194.901M310.272 628.395L524.629-30.38 87.381 548.523c0.342 0 0.342 0 0.342 0.341-23.211 27.99-37.206 54.955-45.398 79.53h267.947m464.555 0.001l-177.494-751.958-186.709 751.958h364.203"  horiz-adv-x="1195" />
      
      <glyph glyph-name="gexinghuadingzhi" unicode="&#58933;" d="M239.969487 477.449104L228.068655 489.349936l103.89105 103.89105L298.669538 626.508178l-103.89105-103.89105-36.414709 36.437683 68.62507 68.648045-33.267191 33.267192-68.648045-68.62507-51.394135 51.394135 181.935698 181.912723a62.284086 62.284086 0 0 0 88.084539 0l121.765273-121.6504 36.759328 36.759328-121.765273 121.765273a114.390433 114.390433 0 0 1-161.764017 0L0 643.739113l203.118261-203.118261zM990.503063 252.527967l-127.394046 127.394045-36.759328-36.759328 127.41702-127.41702a62.284086 62.284086 0 0 0 0-88.084539l-181.935698-181.912724-53.668618 53.645644 87.027708 87.027709-33.290166 33.290166-87.096632-87.096632-36.759328 36.759328 103.959974 103.959974-33.290166 33.290166-103.982949-103.936999-16.449799 16.449799-36.759328-36.759328 210.28633-210.28633 218.763949 218.76395a114.390433 114.390433 0 0 1 0 161.764017zM951.836845 622.349779a64.81129 64.81129 0 0 1 0.206771 91.89832l-116.136502 116.090552a64.81129 64.81129 0 0 1-91.530726 0.206771l-75.586368-74.94308 207.805075-207.805075zM631.961769 719.049786L220.647865 311.228018l207.805075-207.805075 411.336878 407.821768-207.828049 207.805075zM151.701151 242.878643l-81.789504-289.617554 289.617554 81.812479 32.049539 31.796819-207.805076 207.805075-32.072513-31.796819z"  horiz-adv-x="1024" />
      
      <glyph glyph-name="jingjiunaiyong" unicode="&#58892;" d="M508.91 669.82c-157.41 0-284.98-127.54-284.98-284.96 0-157.39 127.59-285.01 284.98-285.01S793.9 227.47 793.9 384.86c0 157.42-127.62 284.96-284.99 284.96z m78.94-404.52L483 358.93V592.1h51.81v-207.26l89.51-76.19-36.47-43.35zM241.4 164.05c-1.82 8.21 8.73 13.26 14.13 6.81 60.69-72.49 151.85-118.59 253.79-118.59 80.43 0 154.15 28.71 211.49 76.43l25.51-30.59c-15.46-12.68-32-24.36-49.98-34.7-94.93-55.02-204.69-62.75-301.33-30.11l-21.93-60.86c-3.6-10.79-11.42-11.69-17.35-1.8l-112.1 187.97c-1.1 1.85-1.84 3.68-2.23 5.44zM840.17 383.12c0 142-89.47 263.09-215.1 310.02l13.2 35.77c18.7-7.01 37.22-15.55 55.02-25.98C788.67 648 849.98 556.85 870.02 456.7l63.74 11.51c11.15 2.16 15.82-4.14 10.25-14.02l-106.8-191.12c-2.56-4.59-6.11-7.21-9.88-7.83-5.95-0.97-10.61 5.22-8.48 10.85 13.77 36.39 21.32 75.82 21.32 117.03zM265.83 656.72l-41.8 49.44c-7.46 8.54-4.32 15.73 7.01 15.91l218.9 2.88h0.28c9.73-0.05 10.85-14.36 1.26-16.05-155.15-27.35-273.02-162.8-273.02-325.79 0-19.38 1.68-38.37 4.88-56.83l-37.44-6.4c-3.33 19.78-5.03 39.91-5.03 60.59 0.01 110.13 48.37 208.83 124.96 276.25z"  horiz-adv-x="1024" />
      
      <glyph glyph-name="tuite" unicode="&#58880;" d="M778.41 800h141.142L611.2 447.573 973.952-32H689.92L467.456 258.859 212.906-32H71.68l329.813 376.96L53.504 800h291.243l201.088-265.856z m-49.535-747.52h78.208L302.25 719.957h-83.926z"  horiz-adv-x="1024" />
      
      <glyph glyph-name="INS" unicode="&#59021;" d="M20.48 865.28h983.04v-983.04H20.48zM307.2 783.36A194.56 194.56 0 0 1 112.64 588.8v-409.6A194.56 194.56 0 0 1 307.2-15.36h409.6a194.56 194.56 0 0 1 194.56 194.56v409.6A194.56 194.56 0 0 1 716.8 783.36H307.2zM174.08 588.8A133.12 133.12 0 0 0 307.2 721.92h409.6a133.12 133.12 0 0 0 133.12-133.12v-409.6A133.12 133.12 0 0 0 716.8 46.08H307.2a133.12 133.12 0 0 0-133.12 133.12v409.6z m337.92-10.24a194.56 194.56 0 1 1 0-389.12 194.56 194.56 0 0 1 0 389.12zM378.88 384a133.12 133.12 0 1 0 266.24 0 133.12 133.12 0 0 0-266.24 0zM737.28 568.32a40.96 40.96 0 1 1 0 81.92 40.96 40.96 0 0 1 0-81.92z"  horiz-adv-x="1024" />
      
      <glyph glyph-name="pencil-ruler-2-fill" unicode="&#59244;" d="M240.469333 353.834667l78.037334-78.037334 60.330666 60.373334-78.037333 77.994666 60.373333 60.330667 77.994667-77.994667 60.330667 60.330667L421.546667 534.869333l60.330666 60.330667 77.994667-78.037333 60.373333 60.373333-78.037333 77.994667 120.704 120.661333a42.666667 42.666667 0 0 0 60.330667 0l180.992-180.992a42.666667 42.666667 0 0 0 0-60.330667L361.173333-8.192a42.666667 42.666667 0 0 0-60.373333 0L119.808 172.8a42.666667 42.666667 0 0 0 0 60.330667l120.661333 120.704z m362.026667-241.365334l181.034667 181.034667L896 181.034667V0h-180.992l-112.512 112.469333zM240.469333 474.538667L119.808 595.2a42.666667 42.666667 0 0 0 0 60.373333l120.661333 120.661334a42.666667 42.666667 0 0 0 60.330667 0L421.546667 655.573333 240.469333 474.538667z"  horiz-adv-x="1024" />
      
      <glyph glyph-name="buhanlinbenerjiasuanyan" unicode="&#59207;" d="M531 643.5c-153.3 0-277.5-124.2-277.5-277.5S377.7 88.5 531 88.5c9.1 0 18.1 0.5 27 1.3-32.7 73-84.5 148.7-84.5 148.7l10 5s71.5-79 97-150.6c14.8 2.7 29.3 6.5 43.2 11.5C580 344.2 521.5 405.5 521.5 405.5l10 5s70.9-75.7 107.6-300.1c18.7 7.9 36.4 17.9 52.8 29.5 9.7 70.9 5.4 159 3 183.5-0.3 3.3 1.3 8.4 2.5 11.4 0.6 1.6 2.6 1.9 3.7 0.6 2.4-3 5.1-8.6 5.5-10.5 4-19.7 18.9-100.8 10.1-165.2 56.4 50.8 91.8 124.4 91.8 206.2 0 153.4-124.2 277.6-277.5 277.6zM732.9 359c10.2 0.2 18.3-3 18.5-4.4 0.2-1.4-8.1-4.9-18.3-5s-19.8 3.1-19.9 4.4c0 1.2 9.5 4.8 19.7 5zM499.7 537.2c6.7 12.4 16.4 19.7 18.4 18.9 2-0.8 0.8-13.5-6-25.9s-17.5-21.5-19.3-20.5c-1.7 0.9 0.2 15.1 6.9 27.5z m-17.4 52.2c5.5 0 9.9-15.8 9.9-35.3 0-19.5-7.1-38-9.9-38-2.8 0-9.9 18.4-9.9 38 0 19.5 4.4 35.3 9.9 35.3z m-14.8-100.1c0 7.4 6 13.4 13.4 13.4s13.4-6 13.4-13.4-6-13.4-13.4-13.4-13.4 6-13.4 13.4z m44.3-40c6.8-12.3 8.1-24.8 6.5-26.1-1.6-1.4-11.3 6.2-18.1 18.5-6.8 12.3-9.1 26.7-7.4 27.8 1.6 1.1 12.2-7.8 19-20.2zM492.2 425c0-19.5-4.4-35.3-9.9-35.3s-9.9 15.8-9.9 35.3c0 19.5 7.1 38 9.9 38s9.9-18.5 9.9-38z m-52.5 130.9c1.6 1.4 11.3-6.2 18.1-18.5 6.8-12.3 9.1-26.7 7.4-27.8-1.7-1.1-12.3 7.9-19.1 20.2-6.7 12.4-8 24.8-6.4 26.1z m18.6-120.5c-6.7-12.4-16.4-19.7-18.4-18.9-2 0.8-0.8 13.5 6 25.9s17.5 21.5 19.3 20.5c1.7-1-0.2-15.2-6.9-27.5z m-71.9 105.5c3.1 4.8 21.4 0.7 40.7-9.2 19.3-9.9 33.6-25.5 32-27.9s-24 0.6-43.3 10.5c-19.4 9.8-32.6 21.8-29.4 26.6z m72.8-50.7c0-1.9-13.3-6.8-27.4-7-14.2-0.2-25.4 4.2-25.7 6.2-0.3 2 11.3 6.8 25.5 7 14.1 0.1 27.5-4.4 27.6-6.2z m-43.5-25c19.3 9.9 41.7 13 43.3 10.5 1.6-2.5-12.6-18.1-32-27.9-19.3-9.9-37.6-14-40.7-9.2-3.1 4.8 10.1 16.7 29.4 26.6zM383.5 328c14.4 0.2 28.2-4.4 28.2-6.3 0-1.9-13.5-7-28-7.2-14.4-0.2-26 4.3-26.3 6.3-0.2 2 11.6 6.9 26.1 7.2z m-46.1-59c-3.2 4.9 10.2 17.1 30 27.2 19.8 10.1 42.6 13.3 44.3 10.7 1.7-2.5-12.9-18.4-32.6-28.5-19.9-10.1-38.5-14.3-41.7-9.4z m73.4-3.3c-6.9-12.6-16.8-20.1-18.8-19.3-2 0.8-0.8 13.8 6.1 26.4 6.9 12.6 17.9 22 19.7 21 1.9-1-0.1-15.5-7-28.1z m9.4 55.1c0 7.5 6.1 13.7 13.7 13.7 7.5 0 13.6-6.1 13.6-13.7 0-7.5-6.1-13.6-13.6-13.6-7.5-0.1-13.7 6-13.7 13.6z m15.2-101.7c-5.6 0-10.1 16.1-10.1 36.1s7.2 38.8 10.1 38.8c2.9 0 10.1-18.8 10.1-38.8s-4.5-36.1-10.1-36.1z m36.7 34.2c-1.6-1.4-11.6 6.3-18.5 18.9-7 12.6-9.3 27.3-7.6 28.4 1.7 1.1 12.5-8 19.5-20.6 6.9-12.6 8.3-25.3 6.6-26.7z m54.5 15.7c-3.2-4.9-21.8-0.7-41.6 9.4s-34.3 26-32.6 28.5 24.5-0.6 44.3-10.7c19.7-10.1 33.1-22.3 29.9-27.2z m-74.1 51.8c0 1.9 13.5 7 28 7.2 14.4 0.2 26-4.3 26.3-6.3 0.3-2-11.6-6.9-26-7.2-14.5-0.3-28.2 4.3-28.3 6.3z m74.1 52.6c3.2-4.9-10.2-17.1-30-27.2-19.8-10.1-42.6-13.3-44.3-10.7-1.7 2.5 12.9 18.4 32.6 28.5 19.9 10.2 38.5 14.4 41.7 9.4z m45 65.2c-3.1-4.8-21.4-0.7-40.7 9.2-19.3 9.9-33.6 25.5-32 27.9 1.6 2.5 24-0.6 43.3-10.5 19.4-9.9 32.6-21.8 29.4-26.6z m-72.5 50.7c0 1.9 13.3 6.8 27.4 7 14.2 0.2 25.4-4.2 25.7-6.2 0.3-2-11.3-6.8-25.5-7-14.1-0.2-27.6 4.3-27.6 6.2z m43.2 25c-19.3-9.9-41.7-13-43.3-10.5-1.6 2.5 12.6 18.1 32 27.9 19.3 9.9 37.6 14 40.7 9.2 3.1-4.8-10.1-16.8-29.4-26.6z m89.9-196.8c-2.3 3.5 7.2 12 21.1 19.1 13.9 7.1 30 9.3 31.1 7.5 1.2-1.8-9.1-13-22.9-20.1-13.9-7-27-10-29.3-6.5z m51.7-2.3c-4.8-8.9-11.8-14.1-13.2-13.5-1.4 0.6-0.5 9.7 4.3 18.6 4.8 8.9 12.6 15.5 13.8 14.7 1.3-0.7-0.1-10.9-4.9-19.8z m16.2 29.1c-5.3 0-9.6 4.3-9.6 9.6s4.3 9.6 9.6 9.6 9.6-4.3 9.6-9.6-4.3-9.6-9.6-9.6z m26.9-37.8c-1.1-1-8.1 4.5-13 13.3-4.9 8.9-6.5 19.2-5.3 19.9 1.2 0.8 8.8-5.6 13.7-14.5 4.8-8.8 5.7-17.8 4.6-18.7z m9 17.6c-13.9 7.1-24.1 18.3-22.9 20.1s17.2-0.5 31.1-7.5c13.9-7.1 23.3-15.6 21.1-19.1-2.3-3.6-15.4-0.6-29.3 6.5zM531-87c-61.1 0-120.5 12-176.3 35.6-53.9 22.8-102.4 55.5-144 97.1-41.6 41.6-74.3 90-97.1 144C90 245.5 78 304.9 78 366c0 61.1 12 120.5 35.6 176.3 22.8 53.9 55.5 102.4 97.1 144 41.6 41.6 90 74.3 144 97.1C410.5 807 469.9 819 531 819c61.1 0 120.5-12 176.3-35.6 53.9-22.8 102.4-55.5 144-97.1 41.6-41.6 74.3-90 97.1-144C972 486.5 984 427.1 984 366c0-61.1-12-120.5-35.6-176.3-22.8-53.9-55.5-102.4-97.1-144s-90-74.3-144-97.1C651.5-75 592.1-87 531-87z m0 876c-233.2 0-423-189.8-423-423s189.8-423 423-423 423 189.8 423 423-189.8 423-423 423zM280.9 640.3c4.4 4.1 9 6.2 13.5 6.2 4.6 0 8.7-2 12.4-6.1 3.7-4 5.4-8.3 5.1-12.8-0.3-4.5-2.6-8.7-6.9-12.6l-8.4-7.7 12.3-13.4-6.9-6.4-36 39.1 14.9 13.7z m16.9-20.2c2.5 2.3 3.9 4.6 4.3 7 0.3 2.4-0.5 4.6-2.4 6.7-1.9 2.1-4.1 3.1-6.5 2.9-2.4-0.1-4.9-1.3-7.4-3.6l-7-6.4 11.9-13 7.1 6.4zM358.8 671.3l-10.9 17.9 8 4.9 27.8-45.4-8-4.9-12.2 20-21.1-12.9 12.2-20-8-4.9-27.8 45.4 8 4.9 10.9-17.9 21.1 12.9zM424.3 665.7l-8.8-3.3L400 704l-14.8-5.5-3.1 8.3 38.4 14.3 3.1-8.3-14.8-5.5 15.5-41.6zM485.7 713.6l-3.4 20.7 9.3 1.5 8.7-52.5-9.3-1.5-3.8 23.1-24.4-4 3.8-23.1-9.3-1.5-8.7 52.5 9.3 1.5 3.4-20.7 24.4 4zM567.5 682.9l-10 0.4-4.7 14.8-19 0.7-5.8-14.4-10.1 0.4 21.9 52.5 9.7-0.4 18-54zM544 724.2l-6.7-16.7 12.5-0.5-5.4 17.1-0.4 0.1zM606 729.7l-9.7-43.4 25.2-5.6-1.9-8.5-34.4 7.7 11.6 51.9 9.2-2.1zM679.2 648.5l-9.2 4 0.9 15.5-17.5 7.5-10.6-11.4-9.3 4 39.3 41 8.9-3.8-2.5-56.8z m-7 47.1L660 682.4l11.5-4.9 1.1 17.9-0.4 0.2zM707.9 630.4l-7.9 5.1 24.1 37.2-13.2 8.6 4.8 7.4 34.4-22.3-4.8-7.4-13.2 8.6-24.2-37.2zM758.4 620.1l-9.7-10.4 19-17.8-5.9-6.4-25.9 24.2 36.3 38.9 25.3-23.6-5.9-6.3-18.4 17.2-8.8-9.4 17.4-16.3-5.9-6.4-17.5 16.3zM418.5 25.7l-7.6-24.7-10.9 3.3 18.8 61.4 39.3-12-3.1-10.2-28.4 8.7-5-16.2 26.4-8.1-3.2-10.3-26.3 8.1zM509.9-17.7l-11.3 25.4-11.3 1-2.2-24.2-11.3 1 5.8 64 24-2.2c7-0.6 12.3-2.9 16-6.8 3.7-3.9 5.3-9 4.7-15.2-0.4-4.6-1.8-8.3-4.2-11.3-2.4-3-5.7-4.9-9.8-6l13.1-27-13.5 1.3z m-20 55.9l-1.7-19 11.3-1c3.8-0.3 6.9 0.2 9.2 1.6 2.3 1.4 3.6 3.6 3.9 6.6 0.3 3.1-0.6 5.6-2.6 7.4s-4.9 2.9-8.7 3.3l-11.4 1.1zM563.9 11.1l2-17.1 31.3 3.6 1.2-10.5-42.6-4.9-7.4 63.8 41.5 4.8 1.2-10.4-30.2-3.5 1.8-15.5 28.6 3.3 1.2-10.5-28.6-3.1zM634.4 24.9l5.4-16.3 29.9 9.9 3.3-10-40.7-13.4-20.1 61 39.7 13.1 3.3-9.9-28.9-9.5 4.9-14.8 27.3 9 3.3-10-27.4-9.1zM174.5 363.5m-22.5 0a22.5 22.5 0 1 1 45 0 22.5 22.5 0 1 1-45 0ZM884.5 363.5m-22.5 0a22.5 22.5 0 1 1 45 0 22.5 22.5 0 1 1-45 0Z"  horiz-adv-x="1024" />
      
      <glyph glyph-name="wuyiwei" unicode="&#59206;" d="M873.6 517.7c-4.6 13.9-19.7 21.4-33.5 16.7l-102.7-34.3c-5.3 10-9.8 20-13.5 30.5-4.7 13.4-6.7 27.4-8 41.5-0.7 14.1 0.7 28.8 2.7 43.5 4.7 30.1 16.1 60.2 24.1 93.7 4 16.7 6.7 34.1 5.4 52.2-1.3 18.1-8.7 34.8-19.4 47.5 5.4-16.1 6.7-32.1 3.3-46.8-2.7-15.4-8.7-29.4-15.4-44.2-13.4-28.8-30.1-58.2-40.8-92.4-10.7-34.1-13.4-73.6-3.3-109.7 3-11.5 7.1-22.7 11.9-33.5l-160.2-53.6c-1.7 4.5-3.4 8.9-4.9 13.5-10.7 32.1-14.7 65.6-12.7 100.4s10.7 70.3 18.7 107.1c4 18.1 8 37.5 9.4 56.2 2 19.4 0.7 38.8-4.7 56.9-1.3-38.1-16.7-70.9-30.8-105.1-14.7-34.1-29.4-70.3-36.1-109.7-7.4-39.5-6-81.6 5.4-121.1 1.4-5.2 2.9-10.2 4.5-15.2l-128.7-43c-1.7 19.6-6.2 37.5-12.4 55.5-6.7 18.1-15.4 34.8-25.4 51.5l-7.4 16.1-4 8.7-3.3 8.7c-2 6-4.7 12-6.7 18.1l-5.4 18.1c-6 24.1-8 49.5-6.7 75.6 1.3 26.1 7.4 52.9 12 81 1.3 7.4 2 14.1 2.7 21.4l0.7 10.7v10.7c0 7.4-0.7 14.7-1.3 21.4 0 3.3-1.3 7.4-2 10.7-0.7 3.3-2 6.7-2.7 10-2-28.8-11.4-53.5-21.4-79.6-10.7-25.4-22.1-52.2-28.1-81.6-6.7-29.4-7.4-60.9-3.3-91 4.7-30.8 15.4-58.9 27.4-86.3v-0.7l1.3-2c8-13.4 15.4-27.4 20.1-42.2 5.4-14.7 8.7-29.4 10-44.8 0.3-2.8 0.5-5.6 0.7-8.4L177.2 313c-13.9-4.6-21.4-19.7-16.7-33.5 4.6-13.9 19.7-21.4 33.5-16.7l91.5 30.6c-1.7-9.6-3.9-19.2-6.5-28.9-8.7-32.1-22.1-63.6-36.1-96.4-6.7-16.1-14.1-32.8-20.1-50.2-3.3-8.7-5.4-17.4-7.4-26.8-1.3-9.4-2-19.4 1.3-27.4 0 9.4 3.3 16.7 8 24.8 4 7.4 8.7 14.7 14.1 22.1 10 14.1 20.7 28.1 30.8 42.8 20.7 29.4 40.2 60.2 54.9 95.7 6.7 17.4 12.7 36.1 16.7 55.5 0.4 2.6 0.9 5.2 1.3 7.8l151.2 50.5c3.4-6.5 7-13 10.9-18.8l13.4-22.8c8-14.7 14.1-30.1 18.7-45.5 4.7-16.1 7.4-32.1 8-48.9 2-33.5-3.3-67.6-13.4-101-10-33.5-24.8-66.9-41.5-99.7-8-16.7-17.4-32.8-26.1-49.5s-18.1-32.8-24.8-50.9c6 7.4 12 14.1 18.7 20.7l19.4 20.7c12.7 14.1 24.8 28.1 36.8 43.5 23.4 30.1 44.2 62.9 59.6 99.7 8 18.1 14.1 37.5 18.7 56.9 4.7 19.4 6.7 40.2 6.7 60.9s-2.7 41.5-8 61.6c-6 20.7-14.1 39.5-23.4 58.2L552 372.7c-1.4 2.8-3.2 5.3-4.8 8l163.1 54.5c2.2-4.1 4.3-8.2 6.3-12.3 3.3-6.7 6.7-13.4 9.4-20.7 2.7-6.7 5.4-14.1 7.4-20.7 4.7-14.1 8-28.1 9.4-42.2 1.3-14.1 1.3-28.1-0.7-42.2-2-14.1-6-28.1-10.7-42.8-10-28.8-26.1-56.9-40.8-87-7.4-15.4-14.1-30.8-19.4-46.8-5.4-16.1-8.7-32.8-9.4-49.5 12.7 30.8 32.1 56.2 52.2 81.6 20.1 25.4 41.5 52.2 57.6 83.7 16.7 31.5 26.8 68.9 24.8 106.4-1.3 38.1-13.4 73.6-28.8 105.1-1 1.9-1.9 3.8-2.9 5.7l92.3 30.8c13.8 4.5 21.3 19.5 16.6 33.4z"  horiz-adv-x="1024" />
      
      <glyph glyph-name="rifusheliang" unicode="&#58988;" d="M417.075 379.557c0-52.608 42.648-95.256 95.256-95.256s95.256 42.648 95.256 95.256-42.648 95.256-95.256 95.256c-52.609 0-95.256-42.648-95.256-95.256z m95.256 127.185c23.415 0 45.233-6.386 63.859-17.029l160.179 274.593c-65.987 38.315-142.086 60.666-224.038 60.666s-158.583-22.351-224.57-60.666l158.583-275.657c19.157 11.175 41.507 18.093 65.987 18.093zM385.145 379.557H66.915c0-165.501 93.127-304.926 227.231-381.557l155.39 270.868c-38.315 21.818-64.391 63.327-64.391 110.689z m254.371 0c0-47.362-26.076-88.87-64.923-110.689L729.983-2c134.104 76.631 227.231 216.056 227.231 381.557H639.516z"  horiz-adv-x="1024" />
      
      <glyph glyph-name="shuazi" unicode="&#58937;" d="M559.96672669 733.9694656300001l356.82531508-356.82531509-133.87385559-133.87385559L426.09287109 600.09561004z m249.72623062 43.76645278l133.87385559-133.87385558-89.59250335-89.59250336L719.5855545 688.65831451z m-574.62778015-321.2972534a778.42204445 778.42204445 0 0 1 146.23144226 97.83089446l356.8253151-356.82531509-222.95145951-222.9514595-256.93482285 269.29240952 126.66526337 63.84753111-197.72138671-8.23839109L67.20795823 419.365905a391.03146667 391.03146667 0 0 1 167.85721893 37.07276001zM563.65084444 731.3408l356.8071111-356.80711111-133.25653333-133.98471111-356.80711111 356.80711111z m249.76497777 45.14702222l133.98471112-133.98471111-89.56586666-89.56586666-133.98471113 133.9847111zM239.61173333 455.36142222a778.42204445 778.42204445 0 0 1 145.63555556 98.304l356.8071111-356.80711111-222.82239999-223.55057778L260.72888889 242.00533332999998l126.70293333 63.35146667-195.87982223-6.5536-118.69297777 120.14933333a391.03146667 391.03146667 0 0 1 166.75271111 36.40888889z"  horiz-adv-x="1024" />
      
      <glyph glyph-name="huanbao" unicode="&#59158;" d="M681.984 200.192v89.6l-120.32-208.896 120.32-208.896v89.088h120.32c29.184 0 57.344 14.848 72.704 41.472L1024 261.12a122.5216 122.5216 0 0 0-105.984-60.928h-236.032zM750.08 797.184c-16.896 29.184-48.64 48.128-82.432 47.616-33.792 0-65.536-18.432-82.432-48.128 0 0-27.648-47.616-55.296-96.256l56.32-97.28-77.824-44.032h241.152L870.4 768l-77.312-45.056c-0.512 0.512-30.72 53.248-43.008 74.24zM1004.032 272.896c16.896 29.696 16.896 66.048-0.512 95.232 0 0-59.904 103.424-107.008 185.856l-206.848-119.296 120.832-208.896H921.6c33.792-0.512 65.536 17.408 82.432 47.104zM284.16 321.536l77.312-45.056-120.32 208.896H0l77.312-44.544-59.904-103.936c-14.848-25.088-15.872-56.832-0.512-83.968L165.888-5.12c-22.016 37.888-21.504 84.48 0.512 122.368l117.76 204.288zM185.856 6.144c16.896-29.696 48.64-47.616 82.944-47.104h214.528v239.104H242.176c-28.16-48.64-55.296-96.256-55.808-96.256-17.408-29.696-17.408-66.56-0.512-95.744zM172.544 609.792l207.872-119.808s156.16 270.336 184.32 319.488c22.016 37.888 60.416 60.416 103.936 60.416H370.688c-31.232 0-57.344-17.408-72.192-42.496-26.624-43.008-125.952-217.6-125.952-217.6z"  horiz-adv-x="1024" />
      
      <glyph glyph-name="lianjie" unicode="&#58902;" d="M415.47 432.265L294.776 311.637a68.267 68.267 0 0 1 0-96.563l48.265-48.264a68.267 68.267 0 0 1 96.563 0l120.662 120.695a136.533 136.533 0 0 0 0-193.092l-168.96-168.96a102.4 102.4 0 0 0-144.794 0L53.419 118.545a102.4 102.4 0 0 0 0 144.794l168.96 168.96a136.533 136.533 0 0 0 193.092 0z m193.06-96.53l120.695 120.662a68.267 68.267 0 0 1 0 96.563l-48.265 48.265a68.267 68.267 0 0 1-96.563 0L463.735 480.529a136.533 136.533 0 0 0 0 193.092l168.96 168.96a102.4 102.4 0 0 0 144.794 0L970.581 649.49a102.4 102.4 0 0 0 0-144.794l-168.96-168.96a136.533 136.533 0 0 0-193.092 0z m-241.324-48.264L608.53 528.794a34.133 34.133 0 1 0 48.299-48.265L415.47 239.206a34.133 34.133 0 1 0-48.299 48.265z"  horiz-adv-x="1024" />
      
      <glyph glyph-name="wendu" unicode="&#58997;" d="M686.592 299.328c39.936-46.144 59.904-99.2 59.904-159.04a230.528 230.528 0 0 0-70.208-169.344 230.72 230.72 0 0 0-169.344-70.208h-1.92a226.176 226.176 0 0 0-168.384 71.04 235.392 235.392 0 0 0-69.248 170.304c0 59.904 19.968 112.32 59.904 157.184V679.232c0 49.92 17.472 92.288 52.416 127.296C414.528 841.408 456.96 858.88 506.88 858.88s92.352-17.472 127.296-52.352a173.44 173.44 0 0 0 52.352-127.296v-379.904z m-29.952-159.104c0 7.488-0.64 14.976-1.856 22.528-1.28 7.424-2.496 14.016-3.776 19.648s-3.776 11.84-7.488 18.688-6.528 12.16-8.384 15.936-4.992 8.448-9.344 14.08l-9.344 12.096a325.248 325.248 0 0 1-19.712 22.4V679.232c0 24.96-8.768 46.144-26.24 63.616a86.592 86.592 0 0 1-63.616 26.24c-24.96 0-46.144-8.768-63.616-26.24a86.336 86.336 0 0 1-26.176-63.616V265.6c-1.28-1.28-4.416-4.992-9.344-11.2-4.992-6.272-8.384-10.304-10.304-12.16s-4.992-5.632-9.344-11.2c-4.352-5.632-7.488-10.304-9.344-14.08s-4.672-9.088-8.384-15.936a70.144 70.144 0 0 1-7.488-18.688c-1.28-5.632-2.496-11.904-3.776-18.688-1.28-6.848-1.856-14.656-1.856-23.424 0-39.936 14.656-74.816 44.032-104.768 29.312-30.016 63.936-44.928 103.872-44.928h1.728a144 144 0 0 1 105.728 44.032 144.128 144.128 0 0 1 44.032 105.664z m-64.576 85.184c23.04-23.104 34.624-51.52 34.624-85.184s-11.584-62.08-34.624-85.12a115.84 115.84 0 0 0-85.184-34.624c-33.664 0-62.08 11.52-85.184 34.624-23.104 23.04-34.624 51.456-34.624 85.12s11.52 62.08 34.624 85.184c23.104 23.04 51.456 34.624 85.184 34.624 33.664 0 62.016-11.52 85.184-34.624z"  horiz-adv-x="1024" />
      
      <glyph glyph-name="leaf" unicode="&#59626;" d="M1101.64877 875.602139C883.925561 908.507037 702.217583 897.05138 557.242182 867.525134h-0.032856c-209.564064-56.774503-216.655401-221.972535-217.569882-220.001198l-7.091337 149.175444C81.04385 678.917476 13.761027 532.95093 2.716064 419.073369c-9.084578-116.018652 38.057754-199.948321 60.804792-243.098695C186.050396 399.759743 495.58862 648.268663 747.580235 766.072471c-6.664214-4.030289-13.432471-8.213904-20.419764-12.589177a1883.995722 1883.995722 0 0 0 23.332962 14.062203c43.177754 21.810652 83.436834 40.63692 118.373305 56.643081 80.939807 37.532064 134.034481 55.635508 133.837348 55.799786 0.180706-0.169754-52.87016-18.870075-133.837348-55.799786-56.785455-26.415914-127.080043-62.896599-200.912086-109.644664a1643.618567 1643.618567 0 0 0 59.205819 38.93938 1964.196278 1964.196278 0 0 1-102.087872-66.959743c-128.361412-85.939337-259.926246-202.905326-359.741604-333.484492-123.652107-152.170781-199.077647-311.805262-220.138097-409.161925-8.306995-37.931807 12.698695-61.801412 22.155637-66.713327 41.671872-21.47662 44.667209 32.729668 44.941005 32.866567 10.44261 69.730567 30.763807 143.015016 60.832171 216.162567 264.83816 7.715594 429.992385 87.275465 573.171679 210.369027-48.500364-4.906439-102.75046-3.882439-189.516663 32.455872 2.108235 2.277989 200.52877-27.85061 317.46738 99.130866v-0.005476c159.453775 187.682225 230.011209 406.095401 227.404663 407.458909z"  horiz-adv-x="1106" />
      
      <glyph glyph-name="kexuehuanbao" unicode="&#59205;" d="M652.8 235.8v76.7l-103-178.8 103-178.8v76.2h103c25 0 49.1 12.7 62.2 35.5L945.5 288c-18.8-32.3-53.3-52.2-90.7-52.1h-202z m58.3 511c-14.5 25-41.6 41.2-70.5 40.8-28.9 0-56.1-15.8-70.5-41.2 0 0-23.7-40.8-47.3-82.4l48.2-83.3-66.7-37.7h206.4l103.4 178.8-66.2-38.6c-0.4 0.5-26.3 45.6-36.8 63.6zM928.4 298.1c14.5 25.4 14.5 56.5-0.4 81.5 0 0-51.3 88.5-91.6 159.1l-177-102.1 103.4-178.8h95.1c28.9-0.5 56.1 14.8 70.5 40.3z m-616.1 41.6l66.2-38.6-103 178.8H69.1l66.2-38.1-51.3-89c-12.7-21.5-13.6-48.6-0.4-71.9L211.1 60c-18.8 32.4-18.4 72.3 0.4 104.7l100.8 175zM228.2 69.8c14.5-25.4 41.6-40.8 71-40.3h183.6V234.1H276.4c-24.1-41.6-47.3-82.4-47.8-82.4-14.9-25.4-14.9-57-0.4-81.9z m-11.4 516.6l177.9-102.5s133.7 231.4 157.8 273.4c18.8 32.4 51.7 51.7 89 51.7h-255c-26.7 0-49.1-14.9-61.8-36.4-22.9-36.8-107.9-186.2-107.9-186.2zM596.9 364.6l-44.2 77.5v29.2h-9.2v-29.2c0-1.7 0.4-3.3 1.2-4.6l7.9-14.2h-55.4l7.9 13.8c0.8 1.2 1.2 2.9 1.2 4.6v29.2h-9.2v-29.2l-43.7-75.8c-1.7-2.5-2.9-5.8-2.9-9.2 0-9.2 6.7-16.7 15-16.7h119.6c7.5 0.8 13.3 7.9 13.3 16.7 0.6 2.9-0.3 5.4-1.5 7.9z m-74.6 24.1c-1.7-1.7-4.2-2.5-6.2-2.5-2.5 0-4.6 0.8-6.3 2.5-1.7 1.7-2.5 4.2-2.5 6.2 0 2.5 0.8 4.6 2.5 6.2 1.7 1.7 4.2 2.5 6.3 2.5 2.5 0 4.6-0.8 6.2-2.5 1.7-1.7 2.5-4.2 2.5-6.2s-0.8-4.5-2.5-6.2z m21.2 82.5h14.2c2.9 0 5.4 2.5 5.4 5.4s-2.5 5.4-5.4 5.4h-65.4c-2.9 0-5.4-2.5-5.4-5.4s2.5-5.4 5.4-5.4h51.2z"  horiz-adv-x="1024" />
      
      <glyph glyph-name="zhengshu1" unicode="&#59204;" d="M299.2-85.6l-27.5 31c-0.4 0.4-38.1 42.8-75.1 79.7-39.6 10.8-80 21-120.1 30.4l-39.3 9.2 130.4 225.5 27.3-35.5c42-54.6 117.5-102.9 187.8-120.2l38.9-9.5-122.4-210.6zM129.4 104.5c30.4-7.5 60.8-15.4 90.6-23.6l7.5-2.1 5.6-5.5c19.9-19.5 40.1-40.8 55.7-57.6l41.8 72c-56.9 20.7-112.5 55.9-154.4 97.6l-46.8-80.8zM724.6-85.9l-121 210.4 38.8 9.5c67.1 16.5 136.2 62.5 180.2 120.1l26.3 34.4L991.1 61l-45.5-6.6c-0.6-0.1-58-8.5-110.5-22.4-37.8-37.6-82.4-86.8-82.8-87.4l-27.7-30.5z m-30.5 173.3l41.5-72.1c17.9 19.2 41.7 44.2 63 65.1l5.5 5.4 7.5 2.1c27.8 7.7 57.2 14 80.5 18.4l-49.6 79.3c-19.7-20.5-42.2-39.3-66.4-55.7-26.1-17.7-53.9-32-82-42.5zM511.6 181.5c-41.4 0-81.9 8.1-120.4 24-37.2 15.4-70.8 37.5-99.9 65.5-29.3 28.2-52.3 61-68.5 97.5-16.9 38.1-25.5 78.6-25.5 120.1s8.5 82.6 25.3 122c16.1 37.9 39 72.3 67.9 102.3 29.1 30.2 62.7 54.1 99.7 71 39 17.8 79.8 26.8 121.4 26.8 41.4 0 82.1-8.6 120.9-25.4 37.1-16.2 70.7-39.1 99.8-68.2 29.1-29.1 52-62.7 68.2-99.9 16.9-38.8 25.4-79.6 25.4-121.1s-8.5-82.3-25.4-121.1c-16.1-37.2-39.1-70.8-68.2-99.9-29.1-29.1-62.7-52.1-99.8-68.2-38.8-16.9-79.4-25.4-120.9-25.4z m0 569.3c-135.5 0-254.3-122.5-254.3-262.2 0-134 116.4-247.1 254.3-247.1 135.5 0 254.3 119 254.3 254.6S647.1 750.8 511.6 750.8zM442 327c-2.3 0-4.6 0.1-7 0.4l-1.5 0.2c-14.5 2.3-27.3 10.1-36.1 22.2-8.8 12-12.3 26.6-10.1 41.1v0.1l8.7 54.3-38.4 40.7-0.5 0.6c-7 8.3-11.8 18.4-13.6 28.4l-0.1 0.6c-2.3 14.6 1.5 29.3 10.5 41.3 8.8 11.7 21.6 19.4 36 21.6l49.3 7.8 22.3 47.3c9.4 18.9 29.1 31.1 50.1 31.1 21.3 0 40.5-11.9 50.1-31.1l0.4-0.7 21.9-46.8 50.2-7.7c10.9-1.9 21.3-7.1 29.4-14.5l1.2-1.2c21.1-21.8 21.2-56.6 0.2-77.9l-37.7-39.2v-1l8.7-53.8c2.1-12.5-0.2-25.1-6.4-35.6-7.2-12.7-18.8-21.9-32.7-26.1-14.3-4.3-29.4-2.7-42.4 4.5l-42.6 22.7-43.4-23.2c-8.1-3.9-16.9-6.1-26.5-6.1z m-34.5 193.7l34.6-36.7c11-11.6 16-27.4 14-43.2l-0.1-0.9-7.9-49.4 36.1 19.2c16 9.9 36.1 10.5 52.9 1.4l38.2-20.3-7.9 49.3v0.6c-2.4 16.3 3 32.8 14.9 44.9l33.8 35.1-41.9 6.4c-19.1 1.8-35.5 13.6-43.2 31.1l-19.2 41.2-19.8-41.7c-7.7-17.1-24.3-28.9-42.7-30.4l-41.8-6.6z m-8.2-1.3z m3.2 6.8z"  horiz-adv-x="1024" />
      
      <glyph glyph-name="yunyingguanli" unicode="&#58920;" d="M500.317859 451.277505a132.406287 132.406287 0 0 0-57.567951 12.952789L121.808582 624.700957a47.493559 47.493559 0 0 0-37.419168 44.615162 57.567951 57.567951 0 0 0 33.101572 49.652358L442.749908 883.756736A150.396272 150.396272 0 0 0 503.915856 895.989926 130.967088 130.967088 0 0 0 559.325009 883.756736l320.941325-156.153067A58.28755 58.28755 0 0 0 919.124701 680.11011a57.567951 57.567951 0 0 0-33.101571-49.652358L559.325009 464.230294a119.453498 119.453498 0 0 0-57.567951-12.233189zM434.114715-124.402003a97.145917 97.145917 0 0 0-33.101571 7.915593L117.490986 32.470663A110.098706 110.098706 0 0 0 55.605439 113.785394V521.798245a47.493559 47.493559 0 0 0 49.652357 49.652358 76.277535 76.277535 0 0 0 28.783976-7.915594l287.839754-148.237473a110.098706 110.098706 0 0 0 61.885547-82.03433v-402.975656a51.091556 51.091556 0 0 0-49.652358-53.250354zM586.669785-124.402003a47.493559 47.493559 0 0 0-49.652357 49.652358v402.975655a96.426318 96.426318 0 0 0 61.885547 82.03433l287.839754 152.55507a76.277535 76.277535 0 0 0 28.783975 7.915593 47.493559 47.493559 0 0 0 49.652358-49.652357v-402.975656a96.426318 96.426318 0 0 0-61.885547-85.632327l-287.839754-152.55507a59.726749 59.726749 0 0 0-28.783976-7.915593z"  horiz-adv-x="1024" />
      
      <glyph glyph-name="a-tuandui2" unicode="&#60220;" d="M989.866667 160.426667c0-47.786667-18.773333-58.026667-92.16-58.026667-18.773333 184.32-110.933333 273.066667-206.506667 319.146667 63.146667 85.333333 66.56 209.92 6.826667 302.08 73.386667 22.186667 150.186667-29.013333 168.96-107.52 15.36-69.973333-15.36-146.773333-80.213334-175.786667 119.466667-30.72 203.093333-146.773333 203.093334-279.893333zM597.333333 406.186667c119.466667-25.6 256-109.226667 256-348.16 0-63.146667-80.213333-63.146667-337.92-63.146667-261.12 0-337.92 0-337.92 63.146667 0 235.52 136.533333 320.853333 254.293334 346.453333-92.16 51.2-124.586667 168.96-80.213334 264.533333s155.306667 131.413333 242.346667 80.213334 121.173333-168.96 73.386667-261.12c-15.36-37.546667-40.96-63.146667-69.973334-81.92z m-262.826666 15.36c-95.573333-44.373333-187.733333-136.533333-206.506667-319.146667-73.386667 0-92.16 10.24-92.16 58.026667-6.826667 133.12 80.213333 250.88 201.386667 279.893333-69.973333 35.84-102.4 121.173333-69.973334 197.973333 29.013333 66.56 95.573333 102.4 162.133334 83.626667-63.146667-90.453333-59.733333-211.626667 5.12-300.373333z"  horiz-adv-x="1024" />
      
      <glyph glyph-name="microscope-fill" unicode="&#60030;" d="M563.029333 799.232l138.666667-240.213333a42.666667 42.666667 0 0 0-15.616-58.24l-55.466667-32 42.709334-73.898667-73.898667-42.666667-42.666667 73.941334-55.424-32.042667a42.666667 42.666667 0 0 0-58.282666 15.616L364.629333 545.493333a213.418667 213.418667 0 0 1-137.472-279.893333A212.266667 212.266667 0 0 0 341.333333 298.666667c71.850667 0 135.424-35.541333 174.08-89.984l328.021334 189.397333 42.666666-73.898667-336.128-194.090666a214.229333 214.229333 0 0 0 0.426667-87.466667L896 42.666667v-85.333334l-725.333333-0.042666A212.394667 212.394667 0 0 0 128 85.333333c0 42.965333 12.714667 82.986667 34.56 116.48a298.794667 298.794667 0 0 0 158.592 418.986667l-16.768 29.098667a85.333333 85.333333 0 0 0 31.232 116.565333l110.848 64a85.333333 85.333333 0 0 0 116.565333-31.232z"  horiz-adv-x="1024" />
      
      <glyph glyph-name="shiyanshi-benjishiyanshi" unicode="&#58979;" d="M1023.964801 454.415179v-559.340772a22.39923 22.39923 0 0 0-21.759252-23.039208h-85.757052a22.39923 22.39923 0 0 0-21.119274 23.039208V488.973992a21.759252 21.759252 0 0 0 21.119274 23.039208h53.758152a55.038108 55.038108 0 0 0 53.758152-57.598021zM167.034258 704.0066H59.517954a59.517954 59.517954 0 0 1-59.517954-58.237998v-750.694195a23.679186 23.679186 0 0 1 23.039208-23.039208h143.99505a23.679186 23.679186 0 0 1 24.959142 23.039208V680.327414A24.319164 24.319164 0 0 1 167.034258 704.0066zM639.978001-127.964801h169.59417a22.39923 22.39923 0 0 1 21.759252 23.039208V837.762002a56.318064 56.318064 0 0 1-55.678086 58.237998H311.029308A56.958042 56.958042 0 0 1 255.9912 837.762002v-942.687595a22.39923 22.39923 0 0 1 21.759252-23.039208H447.984601v255.9912a60.157932 60.157932 0 0 0 63.9978 63.9978h63.9978a56.958042 56.958042 0 0 0 63.9978-63.9978z"  horiz-adv-x="1024" />
      
      <glyph glyph-name="xiaoxih" unicode="&#59111;" d="M658 348.5c-41.2-33.3-93-51.6-146-51.6s-104.8 18.3-146 51.6L38 613.7v-505.3c0-32.6 26.4-59 59-59h830c32.6 0 59 26.4 59 59V613.7L658 348.5zM620.3 395.1l345.5 279.4c-10.4 9-23.9 14.5-38.7 14.5H97c-14.8 0-28.4-5.5-38.7-14.5l345.5-279.4c62.7-50.7 153.7-50.7 216.5 0z"  horiz-adv-x="1024" />
      
      <glyph glyph-name="dianhuah" unicode="&#59104;" d="M479.6 334.6c-81.7 81.6-159.9 176.3-122.4 213.7 53.5 53.5 100.2 86.5 5.3 204.6s-158.2 27.5-210.1-24.4c-59.8-59.9-3.1-283 217.4-503.6 220.5-220.5 443.7-277.3 503.6-217.4 51.9 51.9 142.6 115.1 24.5 210s-151 48.3-204.6-5.3c-37.4-37.4-132 40.8-213.7 122.4z"  horiz-adv-x="1024" />
      
      <glyph glyph-name="wuye" unicode="&#59225;" d="M886.9 427.7L645 555.6c-11.7 6.2-25.9-2.3-25.9-15.6v-518.6c0-22.9 18.6-41.5 41.5-41.5h206.9c22.9 0 41.5 18.6 41.5 41.5V391c0 15.4-8.5 29.5-22.1 36.7zM830.1 202h-132c-16.6 0-30 13.4-30 30s13.4 30 30 30h132c16.6 0 30-13.4 30-30s-13.5-30-30-30zM533.6 819.6L155.9 684.5c-16.5-5.9-27.5-21.5-27.5-39v-624c0-22.9 18.6-41.5 41.5-41.5h345.9c22.9 0 41.5 18.6 41.5 41.5V803c-0.1 12.2-12.2 20.7-23.7 16.6zM408.8 150h-132c-16.6 0-30 13.4-30 30s13.4 30 30 30h132c16.6 0 30-13.4 30-30s-13.5-30-30-30z m0 296.3h-132c-16.6 0-30 13.4-30 30s13.4 30 30 30h132c16.6 0 30-13.4 30-30s-13.5-30-30-30z"  horiz-adv-x="1024" />
      
      <glyph glyph-name="biaoqianlan-copy" unicode="&#61007;" d="M817.166336 307.2a70.4 70.4 0 0 1-19.456 49.408L411.918336 742.4a177.152 177.152 0 0 1-55.04 35.072 165.888 165.888 0 0 1-62.976 14.336H69.390336a66.56 66.56 0 0 1-48.64-20.736A66.56 66.56 0 0 1 0.014336 721.408v-223.744A162.816 162.816 0 0 1 14.350336 435.2a156.928 156.928 0 0 1 35.072-55.04L435.214336-6.144a65.536 65.536 0 0 1 48.64-19.456 70.4 70.4 0 0 1 49.152 19.456L797.710336 258.56a70.656 70.656 0 0 1 19.456 48.64zM221.198336 568.832a65.792 65.792 0 0 0-48.64-19.968 68.096 68.096 0 0 0-68.608 68.608A68.096 68.096 0 0 0 172.558336 686.08a67.328 67.328 0 0 0 68.096-68.608 60.672 60.672 0 0 0-19.456-48.64z m783.104-211.968L618.510336 742.4A172.8 172.8 0 0 1 563.214336 776.448a165.888 165.888 0 0 1-62.976 14.336h-120.832a162.048 162.048 0 0 0 62.976-14.336A156.928 156.928 0 0 0 497.422336 742.4L883.214336 358.4a69.376 69.376 0 0 0 19.968-51.2 65.792 65.792 0 0 0-19.968-48.64l-252.928-253.44a201.728 201.728 0 0 1 28.672-25.6A58.88 58.88 0 0 1 691.214336-25.6a68.608 68.608 0 0 1 49.152 19.968l263.936 264.96A65.536 65.536 0 0 1 1024.014336 307.2a69.888 69.888 0 0 1-19.712 49.152z m0 0"  horiz-adv-x="1024" />
      
      <glyph glyph-name="youhuin" unicode="&#59138;" d="M218.2-80.1c-40.2 0-79.4 14.5-111.2 41.4-34.2 28.9-55.9 68.9-61.2 112.5-1.2 9.8-1.5 19.9-0.9 29.8l13.9 227.9c2.1 38.1 18.1 74 44.9 101.1l0.1 0.1L474 802.8c30.6 30.6 71.9 46.7 116.4 45.3 43.7-1.4 85.3-19.7 117-51.4l215-215c66-66 68.8-170.7 6.2-233.4L558.4-21.9c-27.3-27-63.4-43-101.7-45l-229-13c-3.1-0.1-6.3-0.2-9.5-0.2z m-71.9 470.4a96.036 96.036 0 0 1-27.6-62.2v-0.2L104.8 100c-0.4-6.3-0.2-12.7 0.6-19 7.1-59 60.4-104.2 118.9-100.9l229.2 13c23.6 1.2 45.8 11 62.6 27.6l370 370c39.2 39.3 36.5 105.9-6.2 148.5l-215 215c-20.9 20.9-48.1 33-76.5 33.9-27.7 0.9-53.3-8.9-72-27.7L146.3 390.3z m250.3-264.1c-37.2 0-72.2 14.6-98.4 40.9-26.3 26.3-40.7 61.3-40.6 98.4-0.1 76.7 62.3 139.1 139 139.2h0.1c76.7-0.1 139.1-62.6 139-139.3-0.1-76.6-62.4-139.1-139.1-139.2z m-0.1 218.6c-43.6-0.1-79.1-35.6-79-79.2 0-21.2 8.2-41.1 23.1-56.1 14.9-15 34.8-23.2 56-23.3 43.6 0 79.1 35.6 79 79.3 0 43.7-35.5 79.2-79.1 79.3z"  horiz-adv-x="1024" />
      
      <glyph glyph-name="woden" unicode="&#59153;" d="M932.2 50.7c-9.5 104.4-57.4 201.1-134.9 272.3-45.6 41.8-99.1 72.7-156.8 91.1 11.1 7.7 21.6 16.4 31.3 26.2C714.5 482.9 738 539.6 738 600s-23.5 117.1-66.2 159.8C629.1 802.5 572.4 826 512 826c-60.4 0-117.1-23.5-159.8-66.2C309.5 717.1 286 660.4 286 600s23.5-117.1 66.2-159.8c9.7-9.7 20.2-18.5 31.3-26.2-57.7-18.4-111.2-49.3-156.8-91.1C149.2 251.7 101.3 155 91.8 50.6c-1.6-17.6 4.3-35.2 16.2-48.2 11.9-13 28.8-20.4 46.4-20.4h715.4c17.6 0 34.5 7.5 46.4 20.4 11.7 13.1 17.7 30.7 16 48.3zM346 600c0 91.5 74.5 166 166 166s166-74.5 166-166-74.5-166-166-166-166 74.5-166 166z m525.7-557.1c-0.8-0.9-1.7-0.9-2.1-0.9H154.3c-0.3 0-1.2 0-2.1 0.9-0.6 0.6-0.8 1.4-0.8 2.3C168.5 232.7 323.5 374 512 374c188.5 0 343.5-141.3 360.5-328.8 0.1-0.9-0.2-1.6-0.8-2.3z"  horiz-adv-x="1024" />
      
      <glyph glyph-name="jixiebi-copy" unicode="&#61005;" d="M414.094222 447.336296l172.050963-432.298666a37.925926 37.925926 0 0 0-32.426666-51.844741l-2.806519-0.094815H151.703704a37.925926 37.925926 0 0 0-37.831111 35.081482L113.777778 1.042963V315.543704a151.779556 151.779556 0 0 1 185.078518 16.649481l3.982223 3.868445 111.255703 111.255703z m79.397926 291.328a113.777778 113.777778 0 0 0 0-160.90074L278.945185 363.216593a113.777778 113.777778 0 0 0-160.900741 160.919703L332.591407 738.664296a113.777778 113.777778 0 0 0 160.900741 0zM153.979259 484.882963a56.888889 56.888889 0 1 1 80.440889-80.459852A56.888889 56.888889 0 0 1 153.979259 484.882963zM834.37037 801.185185a37.925926 37.925926 0 1 0 0-75.851852h-57.799111C746.609778 725.333333 720.592593 696.452741 720.592593 658.962963s25.998222-66.37037 55.978666-66.37037H834.37037a37.925926 37.925926 0 1 0 0-75.851852h-57.799111c-51.2 0-94.852741 31.099259-116.754963 76.117333-1.839407-0.18963-3.697778-0.265481-5.594074-0.265481h-119.314963a151.817481 151.817481 0 0 1 24.594963 132.74074H654.222222c1.896296 0 3.754667-0.075852 5.613037-0.227555C681.718519 770.085926 725.371259 801.185185 776.571259 801.185185z m-422.381037-104.087704a37.925926 37.925926 0 1 1 0-75.851851 37.925926 37.925926 0 0 1 0 75.851851z"  horiz-adv-x="1024" />
      
      <glyph glyph-name="diqiu-copy" unicode="&#61006;" d="M499.054617 464.261373c0 2.589077 0 2.589077 0 0 0 2.589077 0 0 0 0z m168.289975-186.413512z m5.178153 0h-5.178153s2.589077-2.589077 5.178153 0zM506.821847 831.910242c-243.373195 0-442.732089-196.769817-442.732089-442.732089s196.769817-442.732089 442.732089-442.732089c243.373195 0 442.732089 196.769817 442.732089 442.732089S752.784119 831.910242 506.821847 831.910242z m282.209343-173.468128c-15.534459 0-25.890766 0-38.836148-7.76723-5.178153-2.589077-7.76723-7.76723-15.534459-10.356306-5.178153-2.589077-12.945383 0-18.123536-2.589077-20.712612-7.76723-18.123536-49.192455-44.014302-44.014301-12.945383 2.589077-20.712612 18.123536-28.479842 28.479842-5.178153 7.76723-15.534459 15.534459-7.767229 25.890766h-10.356307c5.178153 10.356306 18.123536 7.76723 20.712613 12.945382 5.178153 12.945383-15.534459 12.945383-23.301689 15.53446 7.76723 7.76723 10.356306-2.589077 18.123536 0 7.76723 2.589077-2.589077 10.356306-7.76723 12.945383-2.589077 0-25.890766-7.76723-12.945383 5.178153-18.123536 10.356306-36.247072 23.301689-54.370606 33.657994-2.589077-12.945383 23.301689-20.712612 33.657995-23.301689-2.589077-5.178153-10.356306-12.945383-15.534459-10.356305-5.178153 2.589077-2.589077 12.945383-12.945383 10.356305-5.178153-15.534459 12.945383-10.356306 15.534459-20.712612 2.589077-10.356306-7.76723-5.178153-10.356306-5.178153 0 0-7.76723 7.76723-7.76723 2.589077 0-5.178153 10.356306-5.178153 12.945383-10.356306-12.945383 0-20.712612 5.178153-31.068919 10.356306-12.945383 7.76723-18.123536 7.76723-33.657995 7.76723 5.178153 2.589077 10.356306 2.589077 15.534459 5.178153 2.589077 2.589077 10.356306 10.356306 10.356307 12.945381 2.589077 7.76723 0 7.76723-7.76723 12.945383-2.589077 2.589077-10.356306 12.945383-20.712612 12.945383-28.479842 5.178153-10.356306-25.890766-31.068919-31.068919-5.178153 0-15.534459 2.589077-18.123536-2.589075-2.589077-2.589077-2.589077-10.356306-5.178153-12.945383-5.178153-5.178153-12.945383-5.178153-18.123536-10.356306-5.178153-2.589077-18.123536-12.945383-20.712612-18.123536-12.945383-23.301689 25.890766-31.068919 41.425224-36.247072 7.76723-2.589077 25.890766-7.76723 28.479843-12.945383 5.178153-7.76723-5.178153-12.945383 5.178153-18.123536 2.589077-2.589077 10.356306-2.589077 12.945382 2.589077 5.178153 5.178153-2.589077 5.178153-2.589076 12.945383-2.589077 10.356306 2.589077 7.76723 7.76723 10.356306 10.356306 7.76723 7.76723 10.356306 5.178153 23.301689-2.589077 5.178153-10.356306 23.301689-2.589077 28.479842 7.76723 5.178153 25.890766-2.589077 33.657995-5.178153 7.76723 0 12.945383-10.356306 15.53446-15.534459 2.589077-2.589077 7.76723-7.76723 12.945382-7.76723 7.76723 0 5.178153 7.76723 7.76723 10.356306 12.945383 7.76723 15.534459-2.589077 20.712613-12.945383 5.178153-10.356306 7.76723-12.945383 15.534458-20.712612 2.589077-2.589077 20.712612-12.945383 18.123536-20.712612 0-5.178153-18.123536-10.356306-23.301688-12.945383-18.123536-5.178153-51.781531 10.356306-54.370608-18.123536 7.76723 2.589077 25.890766 18.123536 31.068919 10.356306 2.589077-2.589077-2.589077-7.76723 0-12.945383 2.589077-10.356306 10.356306-7.76723 20.712611-5.178153h-2.589075c10.356306 5.178153 10.356306 5.178153 15.534458 12.945383 2.589077 2.589077 5.178153 10.356306 7.76723 12.945383 7.76723 7.76723 10.356306 2.589077 15.534459-2.589077 2.589077-2.589077 12.945383-20.712612 10.356306-18.123536-15.534459 2.589077-28.479842 2.589077-41.425225-5.178153-7.76723-5.178153-12.945383-10.356306-20.712611-12.945383-2.589077 0-18.123536-2.589077-15.534459 0 2.589077 2.589077 10.356306 5.178153 15.534459 10.356307-10.356306 5.178153-18.123536-5.178153-25.890766-10.356307-7.76723-2.589077-10.356306-10.356306-15.534459-18.123535-2.589077-2.589077-7.76723-2.589077-10.356306-7.76723-2.589077-2.589077-2.589077-7.76723-5.178153-12.945383-2.589077-2.589077-7.76723 0-7.76723-5.178153-2.589077-5.178153 2.589077-7.76723 0-12.945383s-12.945383-10.356306-18.123536-15.534458l2.589077 2.589076c-5.178153-5.178153-10.356306-7.76723-12.945383-12.945382 2.589077-7.76723 7.76723-25.890766 5.178153-28.479842-12.945383-10.356306-20.712612 10.356306-25.890766 15.534459-12.945383 18.123536-36.247072 5.178153-54.370607 5.178153-20.712612-2.589077-41.425225-28.479842-28.479841-51.781531 5.178153-10.356306 18.123536-15.534459 28.479841-12.945383 10.356306 2.589077 12.945383 18.123536 23.301689 18.123536 18.123536 0 0-18.123536 0-25.890766-2.589077-5.178153 2.589077-7.76723 7.767229-7.767229 5.178153 0 12.945383 2.589077 15.53446 0 2.589077-2.589077 2.589077-10.356306 5.178153-7.76723-7.76723-5.178153-5.178153-20.712612 2.589076-25.890765 7.76723-5.178153 18.123536 0 25.890766-2.589077 15.534459-5.178153 7.76723 0 23.301689 10.356306 10.356306 5.178153 10.356306 0 18.123536 0 5.178153 0 7.76723 5.178153 15.534459 5.178153 5.178153-2.589077 7.76723-5.178153 15.53446-7.767229h7.767229c12.945383-2.589077 23.301689-10.356306 33.657994-18.123536 7.76723-5.178153 15.534459-5.178153 25.890766-7.76723 7.76723-2.589077 20.712612-12.945383 20.712612-23.301689 0-2.589077-7.76723-10.356306-7.767229-12.945383 2.589077-2.589077 15.534459 2.589077 18.123536 2.589077 0-2.589077-10.356306-7.76723-10.356307-5.178152 0-2.589077 5.178153-5.178153 7.76723-5.178153 5.178153 15.534459 12.945383 5.178153 20.712613 2.589075 7.76723-2.589077 18.123536-2.589077 25.890765-5.178152 7.76723-2.589077 23.301689-7.76723 28.479842-12.945383 5.178153-7.76723 2.589077-18.123536-2.589076-25.890765-5.178153-10.356306-15.534459-12.945383-20.712613-23.301689-2.589077-7.76723 0-18.123536-2.589076-25.890766-2.589077-12.945383-5.178153-7.76723-12.945383-15.534459s0-5.178153-10.356306-10.356306-18.123536-2.589077-25.890766-12.945383v2.589076c-2.589077-5.178153-5.178153-12.945383-5.178153-15.534459-2.589077-7.76723-7.76723-10.356306-12.945383-15.534459-2.589077-2.589077-20.712612-28.479842-20.712612-25.890766-2.589077 2.589077-15.534459-2.589077-15.53446 0 0-2.589077 0-2.589077 2.589077-5.178153-2.589077-20.712612-12.945383-23.301689-33.657994-23.301688 2.589077-10.356306-7.76723-7.76723-12.945383-12.945383-2.589077-2.589077-2.589077-12.945383-5.178153-15.534459 0-2.589077-10.356306-12.945383-10.356306-15.534459 0-2.589077 2.589077-5.178153 5.178153-7.76723-15.534459-2.589077-28.479842-5.178153-44.014302-5.178153 2.589077 2.589077 2.589077 7.76723-5.178153 7.76723 2.589077 7.76723 7.76723 10.356306 10.356306 15.534459v7.76723c2.589077 10.356306 2.589077 5.178153 0 12.945382-5.178153 18.123536 2.589077 23.301689 7.76723 41.425224 5.178153 18.123536 5.178153 38.836148 7.76723 59.548761 2.589077 7.76723 5.178153 28.479842 0 36.247072-2.589077 10.356306-18.123536 18.123536-25.890766 23.301689-10.356306 10.356306-15.534459 18.123536-23.301689 31.068918-2.589077 5.178153-7.76723 10.356306-10.356306 18.123536-5.178153 12.945383 0 5.178153 0 12.945383s0 15.534459 2.589077 23.301688c2.589077 7.76723 10.356306 15.534459 15.534459 23.301689 2.589077 7.76723 0 18.123536-7.76723 20.712613-5.178153 2.589077-10.356306-2.589077-12.945383 0-5.178153 0-12.945383 5.178153-18.123535 10.356306-7.76723 5.178153-10.356306 12.945383-18.123536 18.123536-5.178153 5.178153-10.356306 2.589077-18.123536 2.589076-7.76723 2.589077-10.356306 10.356306-15.53446 12.945383-7.76723 5.178153-12.945383-2.589077-20.712611 0-7.76723 0-18.123536 10.356306-25.890766 12.945383-15.534459 5.178153-23.301689 12.945383-28.479842 28.479842-5.178153 12.945383-12.945383 18.123536-20.712612 28.479842-7.76723 10.356306-10.356306 18.123536-23.301689 23.301689-2.589077 0 2.589077-10.356306 2.589076-12.945383 5.178153-7.76723 12.945383-15.534459 18.123536-25.890765 7.76723-12.945383 5.178153-12.945383-2.589076-2.589077-10.356306 12.945383-20.712612 25.890766-28.479842 38.836148 5.178153-5.178153 5.178153 0 0 5.178154s-12.945383 7.76723-15.53446 12.945381c-18.123536 15.534459-20.712612 38.836148-20.712612 62.137838 0 7.76723 2.589077 12.945383 2.589076 20.712612 0 5.178153-5.178153 10.356306-10.356306 15.534459-2.589077 2.589077-5.178153 7.76723-5.178153 7.76723-5.178153 7.76723-7.76723 12.945383-12.945383 18.123536-2.589077 2.589077-12.945383 10.356306-23.301689 18.123536 41.425225 51.781531 95.795833 93.206756 157.93367 119.09752 0-2.589077 2.589077-5.178153 2.589077-10.356306 7.76723-7.76723 12.945383-7.76723 20.712612-10.356306 0-10.356306-15.534459-12.945383-23.301689-10.356306-10.356306 2.589077-23.301689 5.178153-31.068918-5.178153 5.178153-2.589077 20.712612-15.534459 18.123535-2.589077h31.068919c5.178153 0 18.123536-5.178153 20.712613-2.589076 2.589077 0 2.589077 7.76723 5.178153 10.356306-2.589077 0-5.178153 2.589077-7.76723 0 7.76723 7.76723 12.945383 2.589077 23.301688-2.589077-10.356306-5.178153-2.589077-20.712612 5.178153-7.767229 7.76723 10.356306-2.589077 15.534459-10.356306 20.712612 10.356306 12.945383 15.534459 12.945383 25.890765 0 2.589077 7.76723 7.76723 5.178153 15.53446 5.178153v2.589077c-2.589077 0-7.76723 2.589077-10.356306 2.589076 7.76723 12.945383 2.589077 15.534459 12.945382 18.123536 7.76723 2.589077 31.068919 0 36.247072 7.76723-15.534459-2.589077-36.247072-5.178153-51.781531-10.356306-7.76723-2.589077-12.945383-12.945383-20.712612-7.76723-7.76723 7.76723 5.178153 18.123536 10.356306 20.712612h-2.589077c25.890766 5.178153 54.370608 7.76723 82.85045 7.76723 18.123536 0 36.247072-2.589077 54.370608-2.589077-5.178153-2.589077-2.589077-5.178153-5.178153-7.767229-7.76723-5.178153-23.301689-10.356306-33.657996-15.53446 12.945383 0 44.014301-12.945383 49.192455 5.178154-5.178153 0-7.76723 0-12.945383 2.589076 7.76723 5.178153 15.534459 10.356306 25.890766 12.945383 75.08322-18.123536 147.577363-59.548761 199.358893-116.508444 2.589077 0 0 0 0 0z m72.494143-155.344593c0 2.589077 2.589077 2.589077 2.589077 2.589076 2.589077 2.589077 0 5.178153 2.589076 7.76723 2.589077 2.589077 5.178153 2.589077 7.76723 5.178153l2.589076 2.589076c7.76723-18.123536 12.945383-36.247072 15.53446-56.959683l-7.76723-2.589076c-5.178153 0-7.76723 2.589077-10.356306 5.178153l-10.356306 10.356306c-2.589077 5.178153 0 7.76723 0 12.945383-2.589077 5.178153-5.178153 10.356306-2.589077 12.945382z m5.178153-201.947971c-7.76723 7.76723-15.534459 15.534459-20.712612 23.301689-5.178153 10.356306-2.589077 18.123536-2.589077 28.479842 0 7.76723-5.178153 20.712612 0 28.479842l7.76723 7.76723c2.589077 5.178153 2.589077 10.356306 7.767229 15.534459 5.178153 5.178153 10.356306 7.76723 15.53446 12.945383 5.178153 5.178153 5.178153 7.76723 7.767229 15.53446 2.589077 5.178153 7.76723 12.945383 12.945383 15.534459 2.589077-20.712612 5.178153-38.836148 5.178153-59.548761 0-33.657995-5.178153-69.905067-12.945382-100.973986-7.76723 2.589077-15.534459 7.76723-20.712613 12.945383z m0 0"  horiz-adv-x="1024" />
      
      <glyph glyph-name="rili2" unicode="&#59572;" d="M725.333333 725.333333h74.709334C864.853333 725.333333 917.333333 672.810667 917.333333 607.904V96.106667C917.333333 31.242667 864.832-21.333333 800.042667-21.333333H223.957333C159.146667-21.333333 106.666667 31.189333 106.666667 96.096V607.893333C106.666667 672.757333 159.168 725.333333 223.957333 725.333333H298.666667v32a32 32 0 0 0 64 0v-32h298.666666v32a32 32 0 0 0 64 0v-32z m0-64v-32a32 32 0 0 0-64 0v32H362.666667v-32a32 32 0 0 0-64 0v32h-74.709334A53.354667 53.354667 0 0 1 170.666667 607.904V96.106667A53.301333 53.301333 0 0 1 223.957333 42.666667h576.085334A53.354667 53.354667 0 0 1 853.333333 96.096V607.893333A53.301333 53.301333 0 0 1 800.042667 661.333333H725.333333z m-10.666666-224a32 32 0 0 0 0-64H309.333333a32 32 0 0 0 0 64h405.333334zM586.666667 277.333333a32 32 0 0 0 0-64H309.333333a32 32 0 0 0 0 64h277.333334z"  horiz-adv-x="1024" />
      
      <glyph glyph-name="rilih" unicode="&#59079;" d="M274.3 565c-16.6 0-30 13.4-30 30V777.4c0 16.6 13.4 30 30 30s30-13.4 30-30V595c0-16.6-13.4-30-30-30zM749.7 565c-16.6 0-30 13.4-30 30V777.4c0 16.6 13.4 30 30 30s30-13.4 30-30V595c0-16.6-13.4-30-30-30zM953.9 495.6v140c0 46.3-37.7 83.9-83.9 83.9H153.9c-46.3 0-83.9-37.7-83.9-83.9v-140h883.9zM70 435.6v-421.7c0-46.3 37.7-83.9 83.9-83.9h716.2c46.2 0 83.8 37.6 83.8 83.9V435.6H70z m240.1-323.4h-80.3c-16.6 0-30 13.4-30 30s13.4 30 30 30h80.3c16.6 0 30-13.4 30-30s-13.4-30-30-30z m0 149.8h-80.3c-16.6 0-30 13.4-30 30s13.4 30 30 30h80.3c16.6 0 30-13.4 30-30s-13.4-30-30-30z m242.1-149.8h-80.3c-16.6 0-30 13.4-30 30s13.4 30 30 30h80.3c16.6 0 30-13.4 30-30s-13.5-30-30-30z m0 149.8h-80.3c-16.6 0-30 13.4-30 30s13.4 30 30 30h80.3c16.6 0 30-13.4 30-30s-13.5-30-30-30z m240.9-149.8h-80.3c-16.6 0-30 13.4-30 30s13.4 30 30 30h80.3c16.6 0 30-13.4 30-30s-13.4-30-30-30z m0 149.8h-80.3c-16.6 0-30 13.4-30 30s13.4 30 30 30h80.3c16.6 0 30-13.4 30-30s-13.4-30-30-30z"  horiz-adv-x="1024" />
      
      <glyph glyph-name="rili1" unicode="&#60203;" d="M384 640h256V682.666667h85.333333v-42.666667h128v-554.666667H170.666667V640h128V682.666667h85.333333v-42.666667zM256 554.666667v-384h512V554.666667H256z m170.666667-42.666667v-85.333333H298.666667V512h128z"  horiz-adv-x="1024" />
      
      <glyph glyph-name="fanhuidingbu1" unicode="&#58962;" d="M558.545455 0c0-18.618182-16.290909-34.909091-34.909091-34.909091s-34.909091 16.290909-34.909091 34.909091V556.218182l-2.327273-2.327273-2.327273-2.327273-249.018182-251.345454c-13.963636-13.963636-34.909091-13.963636-48.872727 0-13.963636 13.963636-13.963636 32.581818-2.327273 46.545454l2.327273 2.327273 251.345455 251.345455c46.545455 46.545455 123.345455 46.545455 172.218182 2.327272l4.654545-4.654545L861.090909 349.090909c13.963636-13.963636 13.963636-34.909091 0-48.872727-13.963636-11.636364-32.581818-13.963636-46.545454-2.327273l-2.327273 2.327273-251.345455 249.018182-2.327272 2.327272v-551.563636zM826.181818 802.909091c18.618182 0 34.909091-16.290909 34.909091-34.909091S844.8 733.090909 826.181818 733.090909h-605.090909C202.472727 733.090909 186.181818 749.381818 186.181818 768S202.472727 802.909091 221.090909 802.909091h605.090909z"  horiz-adv-x="1024" />
      
      <glyph glyph-name="fanhuidingbu" unicode="&#58927;" d="M574.060606 372.363636l-209.454545-205.575758c-11.636364-11.636364-31.030303-11.636364-46.545455 0l-7.757576 7.757576c-11.636364 11.636364-11.636364 31.030303 0 42.666667l232.727273 228.848485c0 0 0 0 0 0l7.757576 7.757576c11.636364 11.636364 31.030303 11.636364 46.545455 0l7.757576-7.757576c0 0 0 0 0 0l232.727273-228.848485c11.636364-11.636364 11.636364-31.030303 0-42.666667l-7.757576-7.757576c-11.636364-11.636364-31.030303-11.636364-46.545455 0L574.060606 372.363636M298.666667 539.151515c0 23.272727 15.515152 38.787879 38.787879 38.787879l465.454545 0c23.272727 0 38.787879-15.515152 38.787879-38.787879 0-23.272727-15.515152-38.787879-38.787879-38.787879l-465.454545 0C318.060606 500.363636 298.666667 519.757576 298.666667 539.151515z"  horiz-adv-x="1118" />
      
      <glyph glyph-name="xiangyou" unicode="&#59074;" d="M46.3 365.7c0 16.6 13.4 30 30 30h871.4c16.6 0 30-13.4 30-30s-13.4-30-30-30H76.3c-16.5 0-30 13.4-30 30zM692.5 590.9c0 7.7 2.9 15.4 8.8 21.2 11.7 11.7 30.7 11.7 42.4 0l225.2-225.2c11.7-11.7 11.7-30.7 0-42.4s-30.7-11.7-42.4 0L701.3 569.7c-5.9 5.8-8.8 13.5-8.8 21.2zM692.5 140.5c0 7.7 2.9 15.4 8.8 21.2l225.2 225.2c11.7 11.7 30.7 11.7 42.4 0s11.7-30.7 0-42.4L743.7 119.3c-11.7-11.7-30.7-11.7-42.4 0-5.9 5.8-8.8 13.5-8.8 21.2z"  horiz-adv-x="1024" />
      
      <glyph glyph-name="xiangzuo" unicode="&#59075;" d="M977.7 365.7c0-16.6-13.4-30-30-30H76.3c-16.6 0-30 13.4-30 30s13.4 30 30 30h871.4c16.5 0 30-13.5 30-30zM331.5 140.5c0-7.7-2.9-15.4-8.8-21.2-11.7-11.7-30.7-11.7-42.4 0L55.1 344.5c-11.7 11.7-11.7 30.7 0 42.4s30.7 11.7 42.4 0l225.2-225.2c5.9-5.9 8.8-13.5 8.8-21.2zM331.5 590.9c0-7.7-2.9-15.4-8.8-21.2L97.5 344.5c-11.7-11.7-30.7-11.7-42.4 0s-11.7 30.7 0 42.4l225.2 225.2c11.7 11.7 30.7 11.7 42.4 0 5.9-5.9 8.8-13.5 8.8-21.2z"  horiz-adv-x="1024" />
      
      <glyph glyph-name="xiangshang" unicode="&#59076;" d="M512-100c-16.6 0-30 13.4-30 30V801.4c0 16.6 13.4 30 30 30s30-13.4 30-30V-70c0-16.6-13.4-30-30-30zM286.8 546.2c-7.7 0-15.4 2.9-21.2 8.8-11.7 11.7-11.7 30.7 0 42.4L490.8 822.6c11.7 11.7 30.7 11.7 42.4 0s11.7-30.7 0-42.4L308 554.9c-5.9-5.8-13.5-8.7-21.2-8.7zM737.2 546.2c-7.7 0-15.4 2.9-21.2 8.8L490.8 780.1c-11.7 11.7-11.7 30.7 0 42.4s30.7 11.7 42.4 0l225.2-225.2c11.7-11.7 11.7-30.7 0-42.4-5.8-5.8-13.5-8.7-21.2-8.7z"  horiz-adv-x="1024" />
      
      <glyph glyph-name="xiangxia" unicode="&#59077;" d="M512 831.4c16.6 0 30-13.4 30-30V-70c0-16.6-13.4-30-30-30s-30 13.4-30 30V801.4c0 16.5 13.4 30 30 30zM737.2 185.2c7.7 0 15.4-2.9 21.2-8.8 11.7-11.7 11.7-30.7 0-42.4L533.2-91.2c-11.7-11.7-30.7-11.7-42.4 0s-11.7 30.7 0 42.4L716 176.4c5.9 5.9 13.5 8.8 21.2 8.8zM286.8 185.2c7.7 0 15.4-2.9 21.2-8.8l225.2-225.2c11.7-11.7 11.7-30.7 0-42.4s-30.7-11.7-42.4 0L265.6 134c-11.7 11.7-11.7 30.7 0 42.4 5.8 5.9 13.5 8.8 21.2 8.8z"  horiz-adv-x="1024" />
      
      <glyph glyph-name="yijianbaozhuang" unicode="&#59091;" d="M935.5 516h-441c-33.9 0-61.5-27.6-61.5-61.5V414H315.8c-16.6 0-30-13.4-30-30s13.4-30 30-30H433v-40.5c0-33.9 27.6-61.5 61.5-61.5h441c33.9 0 61.5 27.6 61.5 61.5v141c0 33.9-27.6 61.5-61.5 61.5z m-441-60h441c0.8 0 1.5-0.7 1.5-1.5V414H502.9c-3.5 0-6.8-0.6-9.9-1.7v42.2c0 0.8 0.7 1.5 1.5 1.5z m441-144h-441c-0.8 0-1.5 0.7-1.5 1.5v42.2c3.1-1.1 6.4-1.7 9.9-1.7H937v-40.5c0-0.8-0.7-1.5-1.5-1.5zM189.4 586h-80.1c-31.7 0-57.4-25.8-57.4-57.4v-289.2c0-31.7 25.8-57.4 57.4-57.4h80.1c31.7 0 57.4 25.8 57.4 57.4V528.6c0 31.6-25.8 57.4-57.4 57.4z m-2.6-344h-74.9V526h74.9v-284z"  horiz-adv-x="1024" />
      
      <glyph glyph-name="piliangruku" unicode="&#59123;" d="M896-23.552h-326.656c-17.92 0-32.256 14.336-32.256 32.256s14.336 32.256 32.256 32.256h294.4V504.32l-351.744 225.28-350.208-225.28v-163.328c0-17.92-14.336-32.256-32.256-32.256s-32.256 14.336-32.256 32.256V522.24c0 10.752 5.632 20.992 14.848 27.136l381.952 245.76c10.752 6.656 24.064 6.656 34.816 0l384-246.272c9.216-6.144 14.848-15.872 14.848-27.136v-513.536c0.512-17.408-13.824-31.744-31.744-31.744zM445.952 144.384l-124.416 124.416c-9.728 9.728-25.088 9.728-34.816 0-9.728-9.728-9.728-25.088 0-34.816l81.92-81.92H129.536c-13.824 0-24.576-11.264-24.576-24.576s11.264-24.576 24.576-24.576h239.616l-81.92-81.92c-9.728-9.728-9.728-25.088 0-34.816 4.608-5.12 11.264-7.168 17.408-7.168s12.8 2.56 17.408 7.168l124.416 124.416c9.216 8.704 9.216 24.064-0.512 33.792zM797.184 76.288h-217.6c-19.456 0-35.84 16.384-35.84 35.84s15.872 35.84 35.84 35.84h217.6c19.456 0 35.84-15.872 35.84-35.84 0-19.456-15.872-35.84-35.84-35.84zM797.184 186.368h-217.6c-19.456 0-35.84 16.384-35.84 35.84s15.872 35.84 35.84 35.84h217.6c19.456 0 35.84-15.872 35.84-35.84 0-19.456-15.872-35.84-35.84-35.84zM797.184 296.448h-217.6c-19.456 0-35.84 15.872-35.84 35.84 0 19.456 15.872 35.84 35.84 35.84h217.6c19.456 0 35.84-15.872 35.84-35.84 0-19.456-15.872-35.84-35.84-35.84z"  horiz-adv-x="1024" />
      
      <glyph glyph-name="youshi_youzhi" unicode="&#59037;" d="M993.28 751.8H847.76V860.48c0 19.48-15.72 35.2-35.2 35.2H217.97c-19.48 0-35.2-15.72-35.2-35.2V751.8H30.99c-17.15 0-30.99-15.72-30.99-35.2v-181.63c0-103.31 74.04-187.4 165-187.4h40.51c44.66-109.44 150.4-187.66 274.56-192.15V-51H218.87c-19.8 0-36-16.2-36-36v-5c0-19.8 16.2-36 36-36h593c19.8 0 36 16.2 36 36v5c0 19.8-16.2 36-36 36H550.47V155.42c124.28 4.49 229.99 82.74 274.6 192.15h37.51c88.71 0 160.92 84.09 160.92 187.4V716.6c0.01 19.49-13.49 35.2-30.22 35.2zM165 417.97c-56.78 0-103.02 52.53-103.02 117.01V681.41h120.8v-217.63c0-15.57 1.17-30.86 3.4-45.81h-21.18z m374.18-192.52h-47.83c-131.25 0-238.19 106.8-238.19 238.19V825.29h524.2v-102.34c-0.32-2.06-0.5-4.17-0.5-6.34v-268.13c-7.83-124.34-111.39-223.03-237.68-223.03z m423.88 309.39c0-64.49-45.11-117.01-100.48-117.01h-18.23c2.24 14.95 3.41 30.24 3.41 45.81V681.27h115.3v-146.43z m-314.12 87.73l-75.37 10.88-33.72 68.25c-4.7 9.67-14.51 15.72-25.25 15.72-10.75 0-20.56-6.18-25.26-15.72l-33.72-68.25-75.36-10.88c-10.61-1.61-19.35-9-22.71-19.21-3.36-10.21-0.53-21.37 7.12-28.89l54.54-53.2-12.9-75.1c-1.88-10.61 2.55-21.23 11.15-27.54 8.73-6.32 20.28-7.12 29.69-2.15l67.44 35.47 67.44-35.47c4.03-2.15 8.59-3.23 13.03-3.23 5.78 0 11.55 1.75 16.66 5.38 8.59 6.31 12.9 16.92 11.15 27.54l-12.9 75.1 54.54 53.2c7.66 7.52 10.48 18.68 7.12 28.89-3.34 10.21-12.08 17.73-22.69 19.21zM559.87 550.96c-6.58-6.45-9.67-15.72-8.06-24.85l5.77-33.45-30.09 15.85c-4.03 2.15-8.6 3.22-13.03 3.22s-9-1.07-13.3-3.22l-30.1-15.85 5.78 33.45c1.61 9.13-1.48 18.4-8.06 24.85l-24.32 23.65 33.59 4.83c9.27 1.34 17.19 7.12 21.23 15.45l15.05 30.5 15.04-30.5c4.17-8.32 12.1-14.1 21.23-15.45l33.59-4.83L559.87 550.96z"  horiz-adv-x="1025" />
      
      <glyph glyph-name="a-066_guojiwuliu" unicode="&#59220;" d="M352.58 28.39c-8.8 0-17.71 1.29-26.66 3.89-17.23 5.01-29.34 13.5-33.09 16.35l-131.05 86.53c-0.59 0.39-1.17 0.81-1.72 1.26-16.3 13.14-22.68 31.5-17.48 50.36 7.32 26.57 37.34 48.62 59.7 51.79 40.68 5.77 81.1-5.99 101.57-13.51 1.91-0.7 4.02-0.56 5.81 0.37 0.18 0.09 0.35 0.18 0.53 0.27l126.07 61.75-146.45 103.6c-17.95 12.25-27.87 31.56-27.25 53.01 0.63 21.64 12.11 42.76 28.56 52.57 23.32 13.9 52.78 16.29 85.18 6.93 21.28-6.15 37.35-15.56 39.95-17.13l177.04-103.14a48.057 48.057 0 0 1 38.01-0.93l43.12 17.39c2.26 0.95 34.1 14.39 55.28 23.33 12.9 5.45 22.99 9.71 23.22 9.8 36.63 15.24 68.66 18.62 95.2 10.03 21.99-7.12 32.15-20.13 33.96-22.67 13.74-19.3 19-40.38 15.21-61-6.69-36.43-38.46-58.56-42.06-60.97-0.48-0.32-0.96-0.62-1.46-0.9L403.9 44.32c-16.01-10.58-33.41-15.95-51.33-15.95z m-32.51 56.06c0.85-0.64 8.63-6.38 19.72-9.31 14.15-3.75 27.16-1.44 39.77 7.06 0.5 0.34 1.02 0.65 1.54 0.95l449.65 252.93c5.89 4.25 19.73 16.9 22.31 31.49 1.48 8.38-0.88 16.89-7.23 26.01-2.11 2.25-21.36 20.36-75.62-2.22-0.48-0.2-10.39-4.39-23-9.71-53.04-22.39-55.45-23.4-55.85-23.56l-43.24-17.43c-24.21-9.76-51.57-8.86-75.09 2.46-0.53 0.26-1.05 0.53-1.56 0.83L393.41 447.68c-0.17 0.1-0.35 0.2-0.52 0.31-13.08 7.99-52.86 25.43-78.75 10.01-2.19-1.31-6.39-7.68-6.61-15.21-0.18-6.26 2.27-10.9 7.72-14.59l0.38-0.26L471.03 318l0.1-0.07c11-7.88 17-20.64 16.06-34.13s-8.66-25.3-20.65-31.57c-0.18-0.09-0.35-0.18-0.53-0.27l-135.8-66.52c-12.95-6.67-28.21-7.61-41.9-2.58-16.5 6.06-48.79 15.58-79.72 11.2-2.05-0.29-8.77-2.99-15.37-9.12-6.08-5.65-7.38-9.88-7.41-10.8 0.1-0.2 0.52-0.93 1.82-2.08l130.7-86.31c0.71-0.47 1.1-0.74 1.73-1.27zM842.74 317z m2.7 77.12s0.1-0.16 0.29-0.4c-0.09 0.13-0.19 0.27-0.29 0.4zM161.67 291.19c-9.45 0-18.25 6-21.37 15.46-11.15 33.84-16.81 69.22-16.81 105.16 0 18.7 1.55 37.46 4.62 55.77 7.48 44.69 23.68 86.73 48.15 124.96 35.12 54.86 84.94 98.07 144.1 124.97 43.72 19.88 90.41 29.96 138.79 29.96 79.77 0 157.08-28.47 217.7-80.16 38.43-32.77 69.44-74.43 89.69-120.48 3.73-8.48 7.14-17.22 10.15-25.98 4.03-11.75-2.22-24.55-13.97-28.59-11.75-4.04-24.55 2.22-28.59 13.97-2.6 7.58-5.56 15.14-8.78 22.47-17.54 39.88-44.41 75.96-77.7 104.36-52.48 44.76-119.42 69.4-188.5 69.4-41.91 0-82.34-8.72-120.17-25.92-51.23-23.3-94.4-60.73-124.82-108.27-21.18-33.09-35.2-69.47-41.67-108.13-2.65-15.86-4-32.12-4-48.34 0-31.15 4.89-61.79 14.55-91.07 3.89-11.8-2.52-24.52-14.32-28.41-2.34-0.77-4.71-1.14-7.05-1.14z"  horiz-adv-x="1024" />
      
      <glyph glyph-name="WhatsApp" unicode="&#59200;" d="M493.1 343.7c-37.1 37-72.6 80-55.6 97 24.3 24.3 45.5 39.3 2.4 92.9s-71.8 12.5-95.4-11.1c-27.1-27.2-1.4-128.4 98.7-228.6C543.4 193.8 644.7 168 671.8 195.2c23.6 23.6 64.7 52.2 11.1 95.3-53.6 43.1-68.5 21.9-92.9-2.4-16.9-16.9-59.8 18.6-96.9 55.6zM117.8-78.1L170 136.4c-47 69.9-71.8 151.2-71.8 236 0 57.2 11.2 112.7 33.3 164.9 21.3 50.5 51.9 95.8 90.8 134.7 38.9 38.9 84.2 69.5 134.7 90.8 52.3 22.1 107.8 33.3 164.9 33.3 57.2 0 112.7-11.2 164.9-33.3 50.5-21.3 95.8-51.9 134.7-90.8 38.9-38.9 69.5-84.2 90.8-134.7 22.1-52.3 33.3-107.8 33.3-164.9 0-57.2-11.2-112.7-33.3-164.9-21.3-50.5-51.9-95.8-90.8-134.7-38.9-38.9-84.2-69.5-134.7-90.8-52.3-22.1-107.8-33.3-164.9-33.3-63.8 0-127.2 14.5-184.3 42.1l-219.8-68.9zM343 55.4l11-5.7c52.1-27.2 108.6-40.9 167.8-40.9 200.6 0 363.7 163.2 363.7 363.7S722.4 736.2 521.9 736.2 158.2 573 158.2 372.5c0-76.9 23.7-150.3 68.5-212.4l8.1-11.2L201.3 11 343 55.4z"  horiz-adv-x="1024" />
      
      <glyph glyph-name="wangzhi" unicode="&#59135;" d="M979.2 668.8c19.2 70.4 25.6 208-99.2 224-102.4 12.8-220.8-54.4-284.8-96-19.2 3.2-41.6 6.4-64 6.4-166.4 3.2-272-54.4-361.6-172.8-32-44.8-64-118.4-73.6-201.6 48 80 185.6 224 336 281.6 0 0-224-160-336-390.4v-3.2c-3.2-9.6-9.6-22.4-12.8-32-108.8-268.8-19.2-387.2 60.8-406.4 76.8-19.2 182.4 16 265.6 108.8 144-35.2 288 3.2 342.4 35.2 102.4 54.4 169.6 153.6 188.8 256h-278.4s-12.8-89.6-160-89.6c-137.6 0-144 160-144 160h592s9.6 172.8-73.6 284.8c-48 64-112 118.4-201.6 150.4 28.8 16 76.8 48 115.2 57.6 76.8 19.2 128 9.6 160-48 44.8-73.6-25.6-249.6-25.6-249.6s35.2 51.2 54.4 124.8z m-608-672c-118.4-96-214.4-83.2-249.6-28.8-32 51.2-38.4 140.8 0 262.4 19.2-48 44.8-92.8 86.4-134.4 48-48 105.6-80 163.2-99.2z m-6.4 496s6.4 112 128 121.6c105.6 9.6 163.2-38.4 179.2-128l-307.2 6.4z"  horiz-adv-x="1024" />
      
      <glyph glyph-name="bofang" unicode="&#58919;" d="M507.456 832C262.528 832 64 633.248 64 388.096c0-245.12 198.528-443.872 443.456-443.872 244.896 0 443.456 198.752 443.456 443.872C950.912 633.248 752.352 832 507.456 832z m0-843.408c-220.432 0-399.136 178.88-399.136 399.504C108.32 608.8 287.04 787.632 507.456 787.632c220.432 0 399.136-178.88 399.136-399.536 0-220.624-178.704-399.504-399.136-399.504z m201.28 430.96C639.76 466.56 514.656 536.928 443.36 580.48c-29.232 18.496-53.776 11.088-56.144-21.504-1.728-87.248 0-255.52 0-344.32 1.44-33.04 30.592-37.408 55.92-24.08L708.16 351.264c-0.496 0.272 54.272 30.464 0.592 68.288z"  horiz-adv-x="1024" />
      
      <glyph glyph-name="guhua" unicode="&#58931;" d="M778.7 484.4c-83.4 27.4-50 79.7-100 100-85 34.5-166.7 33.3-166.7 33.3s-81.4 0.9-166.7-33.3c-50.2-20.1-16.6-72.6-100-100-88.2-29-134.2 13.5-133.3 65.9 0.6 35.2 22.3 74.9 66.5 100.7 113.2 66 333.4 66.7 333.4 66.7s220.2-0.7 333.4-66.7c43.9-25.6 65.5-64.9 66.5-99.9 1.5-52.8-44.5-95.9-133.1-66.7zM398.2 508H455v-57.2h114.4V508h57.2v-57.2L855.7 251v-133.4c0-36.8-40.2-66.7-77-66.7H245.3c-36.8 0-76 29.9-76 66.7V251l229 199.9-0.1 57.1z m114.4-372.4c63.2 0 114.4 51.2 114.4 114.4s-51.2 114.4-114.4 114.4S398.2 313.2 398.2 250c0.1-63.2 51.3-114.4 114.4-114.4z m0 0"  horiz-adv-x="1024" />
      
      <glyph glyph-name="zonglan" unicode="&#59036;" d="M406.3 408H113.6c-36 0-65.2 29.2-65.2 65.2V765.9c0 36 29.2 65.2 65.2 65.2h292.7c36 0 65.2-29.2 65.2-65.2v-292.7c0-36-29.2-65.2-65.2-65.2zM113.6 771.1c-2.9 0-5.2-2.3-5.2-5.2v-292.7c0-2.9 2.3-5.2 5.2-5.2h292.7c2.9 0 5.2 2.3 5.2 5.2V765.9c0 2.9-2.3 5.2-5.2 5.2H113.6zM910.4 408H617.7c-36 0-65.2 29.2-65.2 65.2V765.9c0 36 29.2 65.2 65.2 65.2h292.7c36 0 65.2-29.2 65.2-65.2V473c-0.2-35.8-29.4-65-65.2-65zM617.7 771.1c-2.9 0-5.2-2.3-5.2-5.2v-292.7c0-2.9 2.3-5.2 5.2-5.2h292.7c2.9 0 5.2 2.3 5.2 5.3V765.9c0 2.9-2.3 5.2-5.2 5.2H617.7zM406.3-63H113.6c-36 0-65.2 29.2-65.2 65.2V294.8c0 36 29.2 65.2 65.2 65.2h292.7c36 0 65.2-29.2 65.2-65.2v-292.7c0-35.9-29.2-65.1-65.2-65.1zM113.6 300c-2.9 0-5.2-2.3-5.2-5.2v-292.6c0-2.9 2.3-5.2 5.2-5.2h292.7c2.9 0 5.2 2.2 5.2 5.1V294.8c0 2.9-2.3 5.2-5.2 5.2H113.6zM910.4-63H617.7c-36 0-65.2 29.2-65.2 65.2V294.8c0 36 29.2 65.2 65.2 65.2h292.7c36 0 65.2-29.2 65.2-65.2v-292.9c-0.2-35.8-29.4-64.9-65.2-64.9zM617.7 300c-2.9 0-5.2-2.3-5.2-5.2v-292.6c0-2.9 2.3-5.2 5.2-5.2h292.7c2.8 0 5.2 2.3 5.2 5.2V294.8c0 2.9-2.3 5.2-5.2 5.2H617.7z"  horiz-adv-x="1024" />
      
      <glyph glyph-name="a-ziyuan542ldpi-copy" unicode="&#61004;" d="M512 896a512 512 0 1 1 512-512A512 512 0 0 1 512 896z m106.24-75.093333a450.986667 450.986667 0 0 0 334.933333-349.013334 8.533333 8.533333 0 0 1-4.693333 0l-78.506667-29.013333L778.666667 512l-176.64-85.333333 69.973333-146.346667-111.786667-69.12-109.226666 112.213333 6.826666 158.293334 151.04 132.266666zM261.546667 757.333333l-13.226667-70.826666-100.266667-107.946667 26.026667-98.56-111.36-71.253333a449.706667 449.706667 0 0 0 198.826667 348.586666zM512-65.706667a447.146667 447.146667 0 0 0-245.333333 72.96l53.76 10.666667 151.04-34.133333 42.666666-49.493334z m78.933333 7.253334a33.706667 33.706667 0 0 1-5.973333 9.813333l-80.64 88.746667-182.613333 42.666666-101.12-19.2a35.84 35.84 0 0 1-14.506667-7.253333 451.413333 451.413333 0 0 0-141.653333 283.306667 36.266667 36.266667 0 0 1 9.386666 1.706666l170.666667 110.506667-27.733333 109.226667 89.173333 96.426666 23.466667 128a22.613333 22.613333 0 0 1 0 10.666667A443.733333 443.733333 0 0 0 512 833.706667a381.44 381.44 0 0 0 42.666667-2.133334L548.266667 640 396.8 508.16l-8.96-213.333333L550.4 128l201.386667 125.013333-66.986667 141.226667 85.333333 42.666667 87.466667-66.133334 101.546667 37.546667v-25.173333a450.133333 450.133333 0 0 0-368.213334-441.6z"  horiz-adv-x="1024" />
      
      <glyph glyph-name="shijiweizhi" unicode="&#58971;" d="M724.3 778.5C606.9 896 416.5 896 299.1 778.5c-117.4-117.4-117.4-307.8 0-425.2l196-196c9.2-9.2 24.1-9.2 33.3 0l196 196c117.3 117.5 117.3 307.8-0.1 425.2zM511.7 437c-87.5 0-158.4 70.9-158.4 158.4s70.9 158.4 158.4 158.4 158.4-70.9 158.4-158.4S599.2 437 511.7 437zM511.7 74.7c-274.1 0-496.3-40.6-496.3-90.7s222.2-90.7 496.3-90.7S1008-66.1 1008-16s-222.2 90.7-496.3 90.7z m-13-108.5c-182.2 0-330 21.1-330 47.1s147.7 47.1 330 47.1 330-21.1 330-47.1-147.8-47.1-330-47.1z"  horiz-adv-x="1024" />
      
      <glyph glyph-name="sousuo" unicode="&#59066;" d="M493.8 33.6c-52 0-102.5 10.2-150.1 30.3-45.9 19.4-87.1 47.2-122.5 82.6-35.4 35.4-63.2 76.6-82.6 122.5-20.1 47.6-30.3 98-30.3 150.1s10.2 102.5 30.3 150.1c19.4 45.9 47.2 87.1 82.6 122.5 35.4 35.4 76.6 63.2 122.5 82.6 47.6 20.1 98 30.3 150.1 30.3s102.5-10.2 150.1-30.3c45.9-19.4 87.1-47.2 122.5-82.6 35.4-35.4 63.2-76.6 82.6-122.5 20.1-47.6 30.3-98 30.3-150.1s-10.2-102.5-30.3-150c-19.4-45.9-47.2-87.1-82.6-122.5s-76.6-63.2-122.5-82.6c-47.6-20.2-98.1-30.4-150.1-30.4z m0 711.1c-179.5 0-325.5-146-325.5-325.5s146-325.5 325.5-325.5 325.5 146 325.5 325.5-146 325.5-325.5 325.5zM885.8-17.6c-7.7 0-15.4 2.9-21.2 8.8L716 139.7c-11.7 11.7-11.7 30.7 0 42.4s30.7 11.7 42.4 0L907 33.6c11.7-11.7 11.7-30.7 0-42.4-5.9-5.9-13.6-8.8-21.2-8.8z"  horiz-adv-x="1024" />
      
      <glyph glyph-name="xiajiang" unicode="&#59106;" d="M512-69.3c-58.3 0-114.9 11.4-168.2 34-51.5 21.8-97.7 52.9-137.3 92.6s-70.8 85.9-92.6 137.3c-22.5 53.3-34 109.9-34 168.2s11.4 114.9 34 168.2c21.8 51.5 52.9 97.7 92.6 137.3s85.9 70.8 137.3 92.6c53.3 22.5 109.9 34 168.2 34 69.2 0 135.3-15.9 196.5-47.2 58.4-29.9 110-73.4 149.4-126 22.9-30.5 41.6-64 55.7-99.3C933.8 471.6 944 418 944 362.9c0-58.3-11.4-114.9-34-168.2-21.8-51.5-52.9-97.7-92.6-137.3-39.7-39.7-85.9-70.8-137.3-92.6-53.2-22.7-109.8-34.1-168.1-34.1z m0 804.1c-205.1 0-372-166.9-372-372s166.9-372 372-372 372 166.9 372 372c0 47.5-8.8 93.7-26.2 137.4-12.1 30.4-28.2 59.2-47.9 85.5-71 94.7-179.6 149.1-297.9 149.1zM350.7 301.6l140-140c0.3-0.3 0.7-0.7 1.1-1 0.2-0.2 0.4-0.3 0.5-0.5 0.2-0.2 0.4-0.3 0.6-0.5 0.2-0.2 0.5-0.4 0.7-0.6 0.1-0.1 0.3-0.2 0.4-0.3 0.3-0.2 0.5-0.4 0.8-0.6 0.1-0.1 0.3-0.2 0.4-0.3 0.3-0.2 0.6-0.4 0.8-0.5 0.1-0.1 0.3-0.2 0.4-0.2 0.3-0.2 0.6-0.3 0.8-0.5 0.1-0.1 0.3-0.2 0.4-0.2 0.3-0.1 0.5-0.3 0.8-0.4 0.2-0.1 0.3-0.2 0.5-0.3 0.2-0.1 0.5-0.2 0.7-0.3l0.6-0.3c0.2-0.1 0.4-0.2 0.7-0.3 0.2-0.1 0.5-0.2 0.7-0.3 0.2-0.1 0.4-0.1 0.6-0.2 0.3-0.1 0.5-0.2 0.8-0.3 0.2-0.1 0.4-0.1 0.5-0.2 0.3-0.1 0.6-0.2 0.9-0.2 0.2 0 0.3-0.1 0.5-0.1 0.3-0.1 0.6-0.1 0.9-0.2 0.2 0 0.3-0.1 0.5-0.1 0.3-0.1 0.6-0.1 0.9-0.2 0.2 0 0.4-0.1 0.6-0.1 0.3 0 0.6-0.1 0.8-0.1 0.3 0 0.6 0 0.8-0.1h4.2c0.3 0 0.6 0 0.8 0.1 0.3 0 0.6 0.1 0.8 0.1 0.2 0 0.4 0 0.6 0.1 0.3 0 0.6 0.1 0.9 0.2 0.2 0 0.3 0.1 0.5 0.1 0.3 0.1 0.6 0.1 0.9 0.2 0.2 0 0.3 0.1 0.5 0.1 0.3 0.1 0.6 0.2 0.9 0.2 0.2 0.1 0.4 0.1 0.5 0.2 0.3 0.1 0.5 0.2 0.8 0.3 0.2 0.1 0.4 0.1 0.6 0.2 0.2 0.1 0.5 0.2 0.7 0.3 0.2 0.1 0.4 0.2 0.7 0.3l0.6 0.3c0.3 0.1 0.5 0.2 0.7 0.3 0.2 0.1 0.3 0.2 0.5 0.3 0.3 0.1 0.5 0.3 0.8 0.4 0.1 0.1 0.3 0.2 0.4 0.2 0.3 0.2 0.6 0.3 0.8 0.5 0.1 0.1 0.3 0.2 0.4 0.2 0.3 0.2 0.6 0.4 0.9 0.5 0.1 0.1 0.2 0.2 0.4 0.3 0.3 0.2 0.5 0.4 0.8 0.6 0.1 0.1 0.3 0.2 0.4 0.3 0.2 0.2 0.5 0.4 0.7 0.6 0.2 0.1 0.3 0.3 0.5 0.4 0.2 0.2 0.4 0.3 0.6 0.5l0.9 0.9 0.2 0.2 140 140c11.7 11.7 11.7 30.7 0 42.4-5.9 5.9-13.5 8.8-21.2 8.8-7.7 0-15.4-2.9-21.2-8.8l-88.8-88.8V542.8c0 16.6-13.4 30-30 30s-30-13.4-30-30v-287.5l-88.8 88.8c-5.9 5.9-13.5 8.8-21.2 8.8s-15.4-2.9-21.2-8.8c-11-11.7-11-30.7 0.7-42.5z"  horiz-adv-x="1024" />
      
      </font>
</defs>
</svg>
